<?xml version="1.0" standalone="no"?>
<!DOCTYPE svg PUBLIC "-//W3C//DTD SVG 1.1//EN" "http://www.w3.org/Graphics/SVG/1.1/DTD/svg11.dtd" >
<svg xmlns="http://www.w3.org/2000/svg">
<metadata>
This is a custom SVG webfont generated by Font Squirrel.
Copyright   : 2008 Mitja Miklavcic published by FSI FontShop International GmbH
Designer    : Mitja Miklavcic
Foundry     : FSI
Foundry URL : httpwwwfontfontcom
</metadata>
<defs>
<font id="TisaProRegular" horiz-adv-x="419" >
<font-face units-per-em="1000" ascent="729" descent="-271" />
<missing-glyph horiz-adv-x="205" />
<glyph unicode=" "  horiz-adv-x="205" />
<glyph unicode="&#x09;" horiz-adv-x="205" />
<glyph unicode="&#xa0;" horiz-adv-x="205" />
<glyph unicode="!" horiz-adv-x="322" d="M215 695l-19 -485q-12 -3 -32 -3q-21 0 -33 3l-29 476q35 11 81 11q22 0 32 -2zM162 118q29 0 46.5 -16.5t17.5 -46.5q0 -32 -17.5 -49.5t-46.5 -17.5q-65 0 -65 67q0 28 18.5 45.5t46.5 17.5z" />
<glyph unicode="&#x22;" horiz-adv-x="378" d="M293 486q-32 0 -60 7q8 102 8 213q51 0 88 -10q0 -38 -11.5 -102.5t-24.5 -107.5zM121 486q-32 0 -60 7q8 102 8 213q51 0 88 -10q0 -38 -11.5 -102.5t-24.5 -107.5z" />
<glyph unicode="#" horiz-adv-x="524" d="M486 138h-102l-20 -137q-14 -2 -44 -2q-18 0 -30 2l21 137h-124l-20 -137q-14 -2 -44 -2q-18 0 -30 2l21 137h-99q0 27 10 53h99l26 166h-103q0 27 10 53h103l18 109q30 7 69 7l-18 -116h128l18 109q30 7 69 7l-18 -116h95q1 -6 1 -16q0 -19 -4 -37h-101l-24 -166h96 q3 -24 -3 -53zM220 357l-24 -166h125l26 166h-127z" />
<glyph unicode="$" horiz-adv-x="492" d="M336 402v71q-37 16 -79 16q-93 0 -93 -77q0 -26 20.5 -47t50.5 -33.5t66 -29.5t66 -35.5t50.5 -51.5t20.5 -77q0 -70 -48 -109.5t-124 -46.5v-81q-10 -2 -33 -2t-35 2v80q-79 6 -140 39q-6 20 -6 49q0 56 12 83q48 0 76 -11v-79q40 -26 105 -26q48 0 75 24t27 64 q0 36 -28 61t-68.5 41.5t-81 34.5t-68.5 52t-28 84q0 62 41.5 99.5t113.5 43.5v64q27 5 68 5v-70q59 -5 120 -30q2 -12 2 -30q0 -53 -11 -93q-48 0 -71 16z" />
<glyph unicode="%" horiz-adv-x="911" d="M200 540q75 0 118 -39t43 -111q0 -76 -43 -117t-118 -41q-161 0 -161 158q0 68 45 109t116 41zM119 390q0 -51 21 -80t60 -29q80 0 80 109q0 45 -21 73t-59 28q-39 0 -60 -27t-21 -74zM674 534l-374 -559q-12 2 -30 11t-25 16l366 547q31 -2 63 -15zM710 291 q75 0 118 -39t43 -111q0 -76 -43 -117t-118 -41q-161 0 -161 158q0 68 45 109t116 41zM629 141q0 -51 21 -80t60 -29q80 0 80 109q0 45 -21 73t-59 28q-39 0 -60 -27t-21 -74z" />
<glyph unicode="&#x26;" horiz-adv-x="829" d="M686 340q-22 -108 -77 -193q38 -39 71 -82q46 -2 81 -9q10 -28 10 -56h-149q-44 56 -71 85q-98 -105 -241 -105q-46 0 -87.5 10t-77.5 31t-57 58t-21 87q0 72 43 126.5t105 71.5v5q-95 53 -95 154q0 83 58 124.5t133 41.5q69 0 121.5 -36t52.5 -109q0 -59 -39.5 -108 t-93.5 -65v-5q40 -25 104.5 -78.5t100.5 -91.5q28 58 42 144q-28 2 -60 8q-8 25 -10 56h245q0 -28 -12 -59q-25 -3 -76 -5zM505 133q-113 115 -249 202q-93 -48 -93 -150q0 -72 44 -106t115 -34q111 0 183 88zM306 402q43 21 67 58t24 78q0 50 -27 72.5t-65 22.5 q-36 0 -65.5 -20.5t-29.5 -68.5q0 -42 23.5 -74t72.5 -68z" />
<glyph unicode="'" horiz-adv-x="206" d="M121 486q-32 0 -60 7q8 102 8 213q51 0 88 -10q0 -38 -11.5 -102.5t-24.5 -107.5z" />
<glyph unicode="(" horiz-adv-x="316" d="M253 -183q-24 -15 -64 -25q-106 236 -106 492q0 244 91 457q28 15 80 15q-82 -190 -82 -466q0 -264 81 -473z" />
<glyph unicode=")" horiz-adv-x="316" d="M83 -183q81 206 81 467q0 262 -71 453q34 20 65 23q95 -221 95 -470q0 -259 -106 -497q-38 7 -64 24z" />
<glyph unicode="*" horiz-adv-x="422" d="M338 446l-87 59q-15 11 -24 23l-4 -3q10 -20 10 -32l5 -103q-12 -3 -30 -3t-31 3l5 103q0 15 8 31l-4 3q-15 -18 -22 -22l-89 -59q-16 18 -28 51l92 46q16 8 33 10v5q-20 2 -33 9l-90 45q6 26 24 55l90 -56q11 -7 23 -22l5 3q-9 18 -9 30l-4 100q25 5 59 5l-4 -105 q0 -14 -10 -32l5 -3q11 15 24 23l85 55q23 -23 36 -47l-97 -51q-12 -6 -32 -8v-5q18 -2 32 -9l93 -46q-3 -10 -13.5 -28t-17.5 -25z" />
<glyph unicode="+" horiz-adv-x="570" d="M326 304h197q4 -22 4 -47q0 -12 -1 -19h-200v-213q-15 -3 -38 -3q-26 0 -43 3v213h-201q0 34 9 66h192v204q34 6 81 6v-210z" />
<glyph unicode="," horiz-adv-x="251" d="M98 17l-42 10q12 43 33 67q19 4 41 4q38 0 74 -12q-10 -53 -38.5 -125t-52.5 -111q-31 8 -53 26q28 76 38 141z" />
<glyph unicode="-" horiz-adv-x="336" d="M55 308h226q4 -24 4 -53q0 -13 -1 -21h-239q0 42 10 74z" />
<glyph unicode="." horiz-adv-x="288" d="M145 115q28 0 45 -16t17 -45q0 -31 -17 -48.5t-45 -17.5q-64 0 -64 66q0 27 18 44t46 17z" />
<glyph unicode="/" horiz-adv-x="446" d="M473 743l-345 -908q-12 2 -35.5 10t-32.5 14l339 893q42 0 74 -9z" />
<glyph unicode="0" horiz-adv-x="631" d="M316 543q121 0 190 -71t69 -202q0 -140 -68.5 -215t-190.5 -75q-127 0 -193.5 73t-66.5 217q0 125 72 199t188 74zM151 270q0 -105 44 -166t121 -61q81 0 122.5 59t41.5 168q0 94 -44.5 152.5t-119.5 58.5q-79 0 -122 -56t-43 -155z" />
<glyph unicode="1" horiz-adv-x="408" d="M177 75v384l-144 -18q2 33 16 62q105 35 218 40v-473q69 -6 116 -17q5 -17 5 -39q0 -8 -1 -14h-332q4 22 18 50q42 14 104 25z" />
<glyph unicode="2" horiz-adv-x="496" d="M158 80v-7q176 2 310 12q1 -6 1 -17q0 -34 -6 -68h-399l-13 72q19 17 63.5 52t80.5 65.5t74.5 67.5t60.5 74.5t22 70.5q0 38 -27.5 57t-75.5 19q-54 0 -110 -26v-83q-27 -15 -68 -15q-13 37 -13 94q0 21 2 45q92 50 195 50q88 0 141 -31t53 -96q0 -42 -22.5 -85 t-61.5 -81t-74.5 -67.5t-77.5 -60t-55 -42.5z" />
<glyph unicode="3" horiz-adv-x="493" d="M131 189q-7 13 -7 40q0 10 2 24q81 3 142.5 38t61.5 96q0 47 -31 69t-76 22q-47 0 -97 -16v-70q-27 -15 -71 -15q-11 39 -11 86q0 21 2 45q87 35 188 35q82 0 137.5 -35.5t55.5 -107.5q0 -58 -39.5 -103t-97.5 -65v-5q63 -8 108.5 -43t45.5 -95q0 -93 -80.5 -148 t-186.5 -55q-72 0 -136 18q-15 26 -15 59q0 7 1 12q60 -19 143 -19q73 0 124 29.5t51 93.5q0 110 -214 110z" />
<glyph unicode="4" horiz-adv-x="525" d="M406 82v-174q-10 -3 -43 -3t-43 3v174h-286l-14 52q144 231 285 406l101 -16v-375h89q5 -20 5 -43q0 -12 -2 -24h-92zM320 149v227q0 39 5 79h-7q-101 -121 -210 -301v-7q30 2 63 2h149z" />
<glyph unicode="5" horiz-adv-x="489" d="M168 443l-14 -177q48 10 96 10q87 0 142 -42.5t55 -120.5q0 -110 -76 -168.5t-182 -58.5q-69 0 -133 17q-14 21 -14 54q0 7 1 11q68 -14 144 -14q68 0 116.5 40.5t48.5 110.5q0 109 -149 109q-61 0 -126 -13l24 322h348q0 -45 -11 -89q-88 5 -270 9z" />
<glyph unicode="6" horiz-adv-x="560" d="M156 309h7q18 31 56.5 53t90.5 22q91 0 144.5 -54.5t53.5 -135.5q0 -96 -59.5 -155t-153.5 -59q-113 0 -172 74t-59 208q0 168 87 271.5t212 103.5q64 0 112 -22q6 -12 9.5 -35t1.5 -37q-47 25 -117 25q-83 0 -142 -70t-71 -189zM157 255v-14q0 -96 35.5 -148.5 t105.5 -52.5q52 0 85.5 43.5t33.5 105.5q0 60 -34.5 96t-94.5 36q-73 0 -131 -66z" />
<glyph unicode="7" horiz-adv-x="496" d="M461 523l14 -66q-198 -313 -259 -548q-20 -5 -45 -5q-33 0 -55 5q36 118 108.5 260t155.5 264v7h-264q-6 -47 -22 -84q-32 0 -63 12l13 155h417z" />
<glyph unicode="8" horiz-adv-x="539" d="M196 328v5q-45 14 -80 50.5t-35 89.5q0 81 58.5 122.5t138.5 41.5q82 0 138 -36.5t56 -113.5q0 -53 -34 -97t-81 -59v-5q52 -20 90 -59t38 -96q0 -91 -63 -141t-154 -50q-39 0 -74.5 8.5t-68 26.5t-52 52.5t-19.5 80.5q0 63 40.5 112t101.5 68zM247 303 q-105 -42 -105 -138q0 -68 36.5 -98t95.5 -30q51 0 86.5 29.5t35.5 93.5q0 26 -11 47.5t-37 39.5t-44.5 28t-56.5 28zM303 357q42 19 63 53t21 71q0 55 -34.5 79.5t-80.5 24.5q-39 0 -73 -23t-34 -77q0 -42 35 -69.5t103 -58.5z" />
<glyph unicode="9" horiz-adv-x="557" d="M412 214h-7q-16 -31 -56.5 -52.5t-91.5 -21.5q-93 0 -145 54.5t-52 138.5q0 94 59 152t152 58q113 0 172.5 -76t59.5 -218q0 -163 -85 -263t-214 -100q-65 0 -124 24q-8 12 -12 34.5t-2 35.5q57 -21 130 -21q86 0 146 68t70 187zM410 271q0 109 -32.5 161.5t-106.5 52.5 q-57 0 -89 -40t-32 -106q0 -61 34 -98.5t97 -37.5q78 0 129 68z" />
<glyph unicode=":" horiz-adv-x="294" d="M162 468q27 0 44 -16t17 -44q0 -31 -16.5 -48t-44.5 -17q-63 0 -63 65q0 27 17.5 43.5t45.5 16.5zM162 131q28 0 45 -16t17 -45q0 -31 -17 -48.5t-45 -17.5q-64 0 -64 66q0 27 18 44t46 17z" />
<glyph unicode=";" horiz-adv-x="281" d="M147 467q27 0 44 -16t17 -44q0 -31 -16.5 -48t-44.5 -17q-63 0 -63 65q0 27 17.5 43.5t45.5 16.5zM113 17l-42 10q12 43 33 67q19 4 41 4q38 0 74 -12q-10 -53 -38.5 -125t-52.5 -111q-31 8 -53 26q28 76 38 141z" />
<glyph unicode="&#x3c;" horiz-adv-x="570" d="M464 473l-276 -201v-7l270 -196q-4 -11 -21 -30.5t-28 -25.5l-310 227l3 60l299 222q38 -22 63 -49z" />
<glyph unicode="=" horiz-adv-x="570" d="M498 323h-426q0 37 9 68h414q4 -22 4 -48q0 -14 -1 -20zM498 144h-427q0 36 9 68h415q4 -22 4 -48q0 -14 -1 -20z" />
<glyph unicode="&#x3e;" horiz-adv-x="570" d="M472 240l-311 -232q-10 6 -27 26t-22 31l271 200v7l-278 196q28 30 64 49l300 -217z" />
<glyph unicode="?" horiz-adv-x="451" d="M132 629v-100q-29 -16 -71 -16q-12 69 -12 163q32 14 90.5 24.5t103.5 10.5q85 0 134 -37.5t49 -100.5q0 -37 -19.5 -71t-47 -59t-54.5 -48t-46.5 -48t-19.5 -49q0 -44 26 -78q-31 -24 -80 -29q-38 47 -38 100q0 29 18 57.5t44 53l52 49t44 53.5t18 57q0 35 -27 61.5 t-78 26.5q-50 0 -86 -20zM228 118q29 0 46.5 -16.5t17.5 -46.5q0 -32 -17.5 -49.5t-46.5 -17.5q-65 0 -65 67q0 28 18.5 45.5t46.5 17.5z" />
<glyph unicode="@" horiz-adv-x="1038" d="M720 429l-43 -328q0 -4 3 -25q107 10 168 95.5t61 185.5q0 92 -52.5 161t-130 100.5t-165.5 31.5q-182 0 -297 -123t-115 -308q0 -170 103.5 -276t277.5 -106q68 0 137 15t116 42q23 -17 35 -43q-60 -37 -142.5 -57t-165.5 -20q-199 0 -318.5 121t-119.5 318 q0 213 140.5 357t351.5 144q114 0 208 -41t152 -121.5t58 -185.5q0 -135 -93.5 -242.5t-262.5 -118.5q-21 38 -25 69h-5q-50 -69 -147 -69q-60 0 -96.5 43.5t-36.5 132.5q0 118 66 201q73 89 187 89q95 0 151 -42zM601 139l37 266q-26 16 -66 16q-86 0 -126 -65 q-44 -69 -44 -163q0 -121 84 -121q74 0 115 67z" />
<glyph unicode="A" horiz-adv-x="738" d="M721 0h-249q4 30 13 53q25 7 74 12q-21 30 -39 77l-32 85h-265l-33 -90q-12 -34 -36 -75q47 -2 84 -9q8 -26 8 -53h-238q3 27 16 53q19 7 53 11l258 644h64l248 -642q34 -2 63 -9q9 -28 11 -57zM359 596h-7q-7 -42 -28 -96l-80 -216h222l-82 218q-20 53 -25 94z" />
<glyph unicode="B" horiz-adv-x="627" d="M435 372v-5q72 -15 113 -57t41 -106q0 -54 -22.5 -95t-61.5 -65t-86 -35.5t-102 -11.5q-150 0 -288 5q2 25 12 54q29 9 78 13v565q-50 0 -74 3q-2 10 -3 30t1 30q133 8 245 8q115 0 189.5 -47t74.5 -135q0 -56 -32.5 -96.5t-84.5 -54.5zM211 333v-270q40 -4 93 -4 q190 0 190 137q0 68 -51 102.5t-134 34.5h-98zM211 642v-248h94q76 0 115.5 29.5t39.5 96.5q0 59 -51 91.5t-132 32.5q-45 0 -66 -2z" />
<glyph unicode="C" horiz-adv-x="620" d="M495 526v102q-49 22 -108 22q-105 0 -173 -76.5t-68 -215.5q0 -149 64 -224.5t175 -75.5q90 0 187 35q3 -29 -11 -63q-96 -50 -213 -50q-133 0 -216.5 99t-83.5 253q0 175 99.5 278.5t245.5 103.5q106 0 185 -38q0 -103 -12 -166q-39 0 -71 16z" />
<glyph unicode="D" horiz-adv-x="694" d="M119 67v557q-41 0 -74 3q-6 27 -2 60q138 14 264 14q152 0 251.5 -90.5t99.5 -250.5q0 -93 -26 -164.5t-71.5 -114t-102 -64t-121.5 -21.5q-192 0 -308 5q4 30 12 53q32 9 78 13zM211 636v-574q45 -3 97 -3q124 1 188.5 71.5t64.5 224.5q0 134 -77 209t-194 75 q-50 0 -79 -3z" />
<glyph unicode="E" horiz-adv-x="566" d="M527 0h-498q2 24 12 53q32 9 78 13v564q-46 2 -74 7q-6 28 -2 57h474v-147q-28 0 -56 7q-10 40 -12 79h-238v-254h189q2 28 10 54q26 8 57 8v-184q-29 -3 -58 4q-7 34 -9 58h-189v-256h242q4 48 12 86q26 7 62 7v-156z" />
<glyph unicode="F" horiz-adv-x="513" d="M119 66v564q-46 2 -74 7q-6 28 -2 57h457v-150q-33 0 -58 7q-9 39 -13 82h-218v-262h174q2 30 10 55q26 8 57 8v-186q-29 -3 -58 4q-7 33 -9 59h-174v-246q66 -4 99 -10q8 -24 3 -55h-284q2 24 12 53q32 9 78 13z" />
<glyph unicode="G" horiz-adv-x="704" d="M601 272v-248q-43 -15 -115 -29.5t-128 -14.5q-147 0 -230 94.5t-83 251.5q0 176 99.5 282t267.5 106q111 0 194 -52q0 -101 -13 -156q-39 0 -69 16v96q-57 34 -122 34q-111 0 -185.5 -80.5t-74.5 -230.5q0 -144 66 -218t177 -74q57 0 127 12v211q-78 2 -136 10 q-7 21 -7 59h318q-2 -30 -9 -61q-24 -5 -77 -8z" />
<glyph unicode="H" horiz-adv-x="771" d="M744 0h-265q1 19 11 53q35 10 70 13v263h-349v-264q54 -3 83 -9q3 -9 4 -28.5t-1 -27.5h-268q2 24 12 53q32 9 78 13v564q-46 2 -74 7q-6 28 -2 57h249q2 -9 1.5 -27.5t-3.5 -28.5q-32 -6 -79 -8v-236h349v236q-46 2 -74 7q-6 28 -2 57h252q2 -9 1.5 -27.5t-3.5 -28.5 q-34 -6 -82 -8v-565q60 -4 89 -10q4 -15 4 -39q0 -9 -1 -16z" />
<glyph unicode="I" horiz-adv-x="330" d="M303 0h-274q2 24 12 53q32 9 78 13v564q-46 2 -74 7q-6 28 -2 57h252q2 -9 1.5 -27.5t-3.5 -28.5q-36 -6 -82 -8v-565q60 -4 89 -10q4 -15 4 -39q0 -9 -1 -16z" />
<glyph unicode="J" horiz-adv-x="341" d="M49 694h268q2 -8 2 -21q0 -19 -4 -35q-34 -6 -82 -8v-404q0 -142 -60.5 -246t-176.5 -159q-23 21 -27 48q172 102 172 338v423q-55 2 -90 7q-6 28 -2 57z" />
<glyph unicode="K" horiz-adv-x="647" d="M211 382h57l137 188q24 37 54 59q-45 2 -71 7q-8 26 -8 58h229q-2 -33 -14 -59q-20 -4 -59 -6l-206 -263l241 -305l65 4q0 -36 -11 -65q-54 -12 -112 -17l-260 344h-42v-262q54 -4 80 -10q8 -24 3 -55h-265q2 24 12 53q32 9 78 13v564q-46 2 -74 7q-6 28 -2 57h245 q2 -9 1.5 -27.5t-3.5 -28.5q-31 -6 -75 -8v-248z" />
<glyph unicode="L" horiz-adv-x="552" d="M119 66v564q-46 2 -74 7q-6 28 -2 57h262q2 -9 1.5 -27.5t-3.5 -28.5q-38 -6 -92 -8v-566h248q4 68 11 100q21 7 65 7v-171h-506q2 24 12 53q32 9 78 13z" />
<glyph unicode="M" horiz-adv-x="895" d="M406 -13l-157 437q-46 128 -56 204h-7v-565q46 -4 70 -10q2 -8 3 -26t-1 -27h-224q2 22 11 51q30 9 71 13v566q-44 2 -73 7q-2 10 -3 29t1 28h207l148 -423q36 -101 47 -171h7q16 78 50 171l153 423h204q2 -9 1.5 -27.5t-3.5 -28.5q-34 -6 -81 -8v-565q60 -4 89 -10 q4 -15 4 -39q0 -9 -1 -16h-263q1 19 11 53q29 9 73 13v562h-7q-11 -79 -58 -206l-159 -435h-57z" />
<glyph unicode="N" horiz-adv-x="735" d="M251 694l251 -463q14 -25 33.5 -73t25.5 -72h7v544q-47 2 -75 7q-2 10 -3 29t1 28h221q2 -8 2 -21q0 -19 -4 -35q-29 -6 -71 -8v-636h-113l-292 545q-18 33 -35 73h-7v-547q59 -4 87 -10q8 -24 3 -55h-254q2 24 12 53q29 9 76 13v564q-46 2 -74 7q-2 10 -3 29t1 28h211z " />
<glyph unicode="O" horiz-adv-x="721" d="M362 714q144 0 229 -93.5t85 -263.5q0 -178 -85 -277.5t-229 -99.5q-154 0 -235.5 96.5t-81.5 280.5q0 163 89 260t228 97zM144 357q0 -143 58 -226.5t160 -83.5q106 0 160.5 81.5t54.5 228.5q0 127 -59.5 209t-155.5 82q-105 0 -161.5 -78t-56.5 -213z" />
<glyph unicode="P" horiz-adv-x="571" d="M119 66v563q-53 0 -74 3q-6 28 -2 61q120 11 255 11q115 0 187 -53.5t72 -154.5q0 -108 -69 -164t-166 -56q-52 0 -111 8v-219q71 -4 108 -10q8 -25 3 -55h-293q2 24 12 53q32 9 78 13zM211 637v-294q53 -5 107 -5q144 0 144 153q0 72 -48.5 111t-129.5 39q-37 0 -73 -4z " />
<glyph unicode="Q" horiz-adv-x="742" d="M548 43v-7q45 -32 107 -61.5t84 -29.5l67 9q1 -5 1 -14q0 -33 -11 -66q-40 -14 -65 -14q-34 0 -115.5 45t-143.5 93q-54 -18 -110 -18q-154 0 -235.5 96.5t-81.5 280.5q0 163 89 260t228 97q144 0 229 -93.5t85 -263.5q0 -110 -34.5 -192.5t-93.5 -121.5zM144 357 q0 -143 58 -226.5t160 -83.5q106 0 160.5 81.5t54.5 228.5q0 127 -59.5 209t-155.5 82q-105 0 -161.5 -78t-56.5 -213z" />
<glyph unicode="R" horiz-adv-x="628" d="M119 66v565q-53 0 -74 3q-6 28 -2 61q133 10 246 10q114 0 188.5 -49.5t74.5 -144.5q0 -73 -43 -122.5t-109 -67.5q47 -93 94.5 -174t57.5 -83l63 4q0 -35 -12 -65q-45 -12 -109 -18q-35 22 -182 324q-60 0 -101 5v-249q63 -5 83 -9q3 -9 4 -28.5t-1 -27.5h-268 q2 24 12 53q32 9 78 13zM211 640v-272q35 -3 103 -3q67 0 106 34.5t39 104.5t-51 104.5t-135 34.5q-33 0 -62 -3z" />
<glyph unicode="S" horiz-adv-x="540" d="M395 546v84q-38 22 -94 22q-61 0 -97.5 -29t-36.5 -73q0 -41 24.5 -71t61 -47t79.5 -38.5t79.5 -43.5t61 -64t24.5 -98t-20.5 -98t-56.5 -65t-79 -34t-94 -11q-110 0 -199 38q0 97 11 168q42 0 74 -10v-102q54 -30 129 -30q70 0 106 33t36 94q0 37 -18.5 64.5t-47.5 45 t-64.5 32.5t-71 32.5t-64.5 40t-47.5 60.5t-18.5 89q0 80 59 129.5t160 49.5q98 0 185 -34q0 -87 -14 -148q-39 0 -67 14z" />
<glyph unicode="T" horiz-adv-x="586" d="M339 633v-568q64 -4 96 -10q8 -24 3 -55h-288q1 20 13 53q36 9 84 13v567h-162q-4 -44 -13 -85q-22 -6 -60 -6v152h562v-156q-33 0 -61 7q-9 40 -13 88h-161z" />
<glyph unicode="U" horiz-adv-x="704" d="M188 630v-373q0 -212 176 -212q90 0 135 59.5t45 154.5v371q-41 2 -68 7q-3 10 -3.5 29t1.5 28h219q2 -8 2 -21q0 -19 -4 -35q-29 -6 -71 -8v-365q0 -132 -68.5 -208.5t-207.5 -76.5q-248 0 -248 269v379q-55 6 -75 9q-8 19 -8 57h264q2 -9 1.5 -27.5t-3.5 -28.5 q-35 -6 -87 -8z" />
<glyph unicode="V" horiz-adv-x="711" d="M364 68h7q7 45 35 128l100 293q26 74 55 140q-39 2 -78 10q-10 26 -10 55h233q0 -27 -11 -58q-23 -4 -59 -6l-237 -643h-90l-230 642q-27 2 -60 10q-10 26 -10 55h266q0 -30 -13 -58q-34 -4 -91 -6q39 -76 59 -136l104 -305q21 -59 30 -121z" />
<glyph unicode="W" horiz-adv-x="1002" d="M310 70h7q10 61 26 126l122 507h106l115 -511q10 -45 22 -122h7q10 66 25 126l75 299q19 76 42 135q-44 2 -75 8q-8 26 -8 56h215q0 -26 -10 -58q-17 -4 -52 -6l-184 -643h-94l-111 482q-18 73 -27 159h-7q-14 -100 -30 -164l-117 -477h-103l-169 641q-36 4 -55 10 q-9 24 -11 56h255q0 -28 -12 -58q-35 -4 -88 -6q28 -69 43 -135l71 -301q13 -55 22 -124z" />
<glyph unicode="X" horiz-adv-x="705" d="M370 411l90 159q19 34 45 60q-34 2 -64 8q-9 26 -9 56h207q0 -30 -8 -58q-13 -3 -48 -5l-179 -271l199 -296q35 -2 62 -8q9 -25 11 -56h-255q4 29 16 54q23 5 71 9q-33 28 -65 73l-113 169l-105 -182q-17 -31 -46 -60q47 -2 78 -9q10 -26 10 -54h-246q3 25 15 52 q22 6 55 10l202 299l-175 266q-32 2 -58 10q-8 21 -8 57h248q0 -28 -9 -57q-41 -6 -78 -7q30 -30 58 -72z" />
<glyph unicode="Y" horiz-adv-x="602" d="M308 338h7q8 28 25 60l85 163q23 44 43 69q-39 2 -67 8q-9 26 -9 56h206q0 -31 -7 -57q-19 -4 -48 -6l-202 -357v-209q63 -4 95 -10q8 -25 3 -55h-288q4 28 13 53q36 9 85 13v206l-181 356q-27 2 -54 9q-9 25 -9 57h251q0 -31 -9 -56q-36 -6 -82 -8q25 -32 42 -68 l80 -164q13 -27 21 -60z" />
<glyph unicode="Z" horiz-adv-x="561" d="M41 0v70l371 551v7h-275q-2 -43 -15 -92q-32 -7 -67 -7v165h460v-71l-365 -548v-7h297q2 46 13 98q29 9 66 9v-175h-485z" />
<glyph unicode="[" horiz-adv-x="330" d="M102 -193v942h157q3 -31 -3 -56q-26 -5 -69 -7v-816q57 -2 83 -10q4 -14 4 -33q0 -10 -2 -20h-170z" />
<glyph unicode="\" horiz-adv-x="422" d="M70 765l345 -907q-9 -5 -32.5 -13.5t-35.5 -10.5l-340 897q29 24 63 34z" />
<glyph unicode="]" horiz-adv-x="330" d="M229 749v-942h-172q2 29 11 54q26 7 76 12v813q-32 1 -67 7q-7 32 -1 56h153z" />
<glyph unicode="^" horiz-adv-x="570" d="M71 370l175 297l62 6l190 -308q-27 -19 -59 -30l-114 189q-22 35 -44 84h-7q-19 -42 -43 -83l-116 -197q-23 14 -44 42z" />
<glyph unicode="_" horiz-adv-x="500" d="M-1 -172h502q3 -18 3 -42q0 -9 -1 -17h-512q0 35 8 59z" />
<glyph unicode="`" d="M218 552l-145 154q13 9 43.5 15t56.5 6l116 -159q-35 -16 -71 -16z" />
<glyph unicode="a" horiz-adv-x="507" d="M333 59h-5q-19 -36 -56.5 -56t-83.5 -20q-59 0 -100.5 34.5t-41.5 99.5q0 74 53.5 115t132.5 41q54 0 93 -17v54q0 112 -95 112q-31 0 -75 -15t-71 -34q-5 11 -5 34q0 32 11 50q25 14 74 24.5t89 10.5q83 0 120 -44t37 -146v-194q0 -39 13 -52q31 0 69 12q1 -4 1 -11 q0 -25 -10 -45q-17 -11 -50 -20t-58 -9q-15 9 -27.5 30.5t-14.5 45.5zM326 101v111q-30 8 -70 8q-58 0 -90 -24t-32 -64q0 -39 26 -59.5t65 -20.5q30 0 58 13.5t43 35.5z" />
<glyph unicode="b" horiz-adv-x="551" d="M168 364v-309q39 -13 83 -13q80 0 120 52.5t40 142.5q0 88 -35.5 137.5t-93.5 49.5q-73 0 -114 -60zM82 23v641h-72q2 29 18 53q42 14 90 14q28 0 51 -6v-193q0 -52 -5 -117h10q13 34 49 55.5t93 21.5q35 0 66.5 -12.5t59 -39.5t44 -75.5t16.5 -113.5q0 -120 -67 -194 t-175 -74q-98 0 -178 40z" />
<glyph unicode="c" horiz-adv-x="466" d="M350 348v71q-30 15 -58 15q-68 0 -108 -47t-40 -141q0 -95 42.5 -144.5t113.5 -49.5q59 0 123 24q2 -30 -14 -57q-68 -36 -148 -36q-95 0 -153.5 68.5t-58.5 175.5q0 117 68 191t177 74q75 0 131 -36q2 -20 2 -36q0 -49 -14 -85q-37 0 -63 13z" />
<glyph unicode="d" horiz-adv-x="572" d="M383 111v307q-42 14 -83 14q-80 0 -120 -52t-40 -142q0 -88 35.5 -137.5t93.5 -49.5q73 0 114 60zM382 468v196h-72q2 29 18 53q40 14 90 14q28 0 51 -6v-593q0 -44 8 -71h75q1 -4 1 -13q0 -20 -8 -40q-58 -20 -135 -20q-17 31 -20 72h-5q-50 -77 -150 -77 q-35 0 -66.5 12.5t-59 39.5t-44 75.5t-16.5 113.5q0 120 67 194t175 74q57 0 91 -24z" />
<glyph unicode="e" horiz-adv-x="497" d="M448 226h-306q1 -79 46.5 -126t116.5 -47q66 0 140 28q4 -29 -13 -57q-74 -41 -158 -41q-104 0 -164.5 69t-60.5 176q0 113 64 188.5t167 75.5q87 0 129 -57t42 -156q0 -26 -3 -53zM142 284h220q4 38 -2.5 71t-31 57.5t-63.5 24.5q-53 0 -85.5 -42t-37.5 -111z" />
<glyph unicode="f" horiz-adv-x="339" d="M202 475h131q5 -30 5 -58h-136v-353q52 -4 99 -18q5 -22 2 -46h-266q3 25 14 45q26 11 64 19v353h-79q0 24 12 52q29 11 67 18v54q0 95 49.5 142t126.5 47q54 0 109 -17q3 -17 3 -34q0 -49 -14 -88q-36 0 -59 16v67q-13 7 -32 7q-96 0 -96 -130v-76z" />
<glyph unicode="g" horiz-adv-x="541" d="M124 5v5q-20 6 -34 25.5t-14 45.5q0 25 15.5 48.5t39.5 36.5v5q-64 39 -64 142q0 82 54 130.5t138 48.5q65 0 113 -28q34 19 97 19q25 0 43 -6q8 -28 8 -60h-99q29 -43 29 -104q0 -83 -51 -130.5t-140 -47.5q-49 0 -81 11q-15 -15 -15 -41q0 -27 35 -36.5t110 -9.5 q47 0 81.5 -6t64 -20t44.5 -40.5t15 -65.5q0 -86 -71.5 -132.5t-179.5 -46.5q-95 0 -160 39t-65 111q0 40 26.5 69.5t60.5 37.5zM174 -7q-53 -24 -53 -83q0 -49 47 -77t108 -28q63 0 108 27t45 76q0 38 -32.5 56.5t-108.5 18.5q-69 0 -114 10zM155 313q0 -57 28 -91t76 -34 q50 0 76 33t26 92q0 56 -27.5 90.5t-74.5 34.5q-104 0 -104 -125z" />
<glyph unicode="h" horiz-adv-x="603" d="M195 360v-299q45 -4 73 -13q6 -23 2 -48h-240q3 25 14 45q26 11 64 19v600h-72q2 29 18 53q37 14 90 14q28 0 51 -6v-193q0 -57 -5 -125h10q14 34 55 59.5t102 25.5q71 0 111 -37t40 -143q0 -125 -6 -251q50 -4 81 -13q3 -12 3 -31q0 -11 -1 -17h-237q3 25 14 45 q24 11 57 19v234q0 126 -96 126q-36 0 -73 -20t-55 -44z" />
<glyph unicode="i" horiz-adv-x="305" d="M161 707q25 0 40.5 -14.5t15.5 -40.5q0 -28 -15.5 -43.5t-40.5 -15.5q-57 0 -57 59q0 25 16 40t41 15zM115 419h-73q2 29 18 53q40 14 90 14q30 0 52 -6v-418q42 -3 79 -14q3 -12 3 -31q0 -11 -1 -17h-246q3 25 14 45q26 11 64 19v355z" />
<glyph unicode="j" horiz-adv-x="269" d="M102 419h-73q2 27 17 53q40 14 91 14q29 0 52 -6v-410q0 -97 -41 -169t-111 -140q-32 13 -48 39q113 117 113 245v374zM148 707q25 0 40.5 -14.5t15.5 -40.5q0 -28 -15.5 -43.5t-40.5 -15.5q-57 0 -57 59q0 25 16 40t41 15z" />
<glyph unicode="k" horiz-adv-x="563" d="M195 240v-179q42 -3 71 -13q6 -23 2 -48h-238q3 25 14 45q26 11 64 19v600h-72q2 29 18 53q40 14 90 14q28 0 51 -6v-435h56l88 91q20 20 38 32q-40 5 -63 14q-7 19 -7 48h211q0 -27 -10 -53q-15 -5 -48 -8l-153 -146q174 -211 194 -214l59 9q1 -6 1 -12q0 -28 -12 -50 q-37 -16 -76 -22q-14 2 -35.5 20t-59.5 62t-63.5 75t-83.5 104h-36z" />
<glyph unicode="l" horiz-adv-x="296" d="M105 664h-72q2 29 18 53q40 14 90 14q29 0 51 -6v-663q44 -4 81 -14q3 -12 3 -31q0 -11 -1 -17h-248q3 25 14 45q26 11 64 19v600z" />
<glyph unicode="m" horiz-adv-x="899" d="M202 360v-299q45 -4 73 -13q6 -23 2 -48h-240q3 25 14 45q26 11 64 19v355h-73q2 29 18 53q37 14 83 14q26 0 47 -6v-73h10q17 32 58 58.5t100 26.5q110 0 133 -91h5q16 34 58 62.5t103 28.5q69 0 108 -37t39 -143q0 -128 -6 -251q50 -4 81 -13q3 -12 3 -31q0 -11 -1 -17 h-237q3 25 14 45q24 11 57 19v234q0 126 -92 126q-35 0 -69.5 -20t-52.5 -44v-298q41 -3 73 -14q6 -23 2 -48h-231q3 25 14 45q24 11 57 19v234q0 126 -92 126q-35 0 -69.5 -20t-52.5 -44z" />
<glyph unicode="n" horiz-adv-x="605" d="M202 360v-299q45 -4 73 -13q6 -23 2 -48h-240q3 25 14 45q26 11 64 19v355h-73q2 29 18 53q37 14 83 14q26 0 47 -6v-73h10q17 32 58.5 58.5t102.5 26.5q70 0 109.5 -37t39.5 -143q0 -124 -6 -251q50 -4 81 -13q3 -12 3 -31q0 -11 -1 -17h-237q3 25 14 45q24 11 57 19 v234q0 126 -94 126q-35 0 -71 -20t-54 -44z" />
<glyph unicode="o" horiz-adv-x="553" d="M277 492q104 0 165.5 -65t61.5 -182q0 -124 -61 -193t-166 -69q-110 0 -169 67t-59 195q0 113 64 180t164 67zM140 245q0 -92 37 -147t100 -55q67 0 101.5 53.5t34.5 148.5q0 82 -37.5 135t-98.5 53q-66 0 -101.5 -51t-35.5 -137z" />
<glyph unicode="p" horiz-adv-x="565" d="M182 365v-308q42 -14 83 -14q80 0 120 52.5t40 142.5q0 88 -35.5 138t-93.5 50q-73 0 -114 -61zM183 7v-174q50 -4 95 -18q5 -22 2 -46h-262q3 25 14 45q26 11 64 19v586h-74q2 29 18 53q38 14 83 14q26 0 47 -6v-65h10q48 77 147 77q35 0 67 -12.5t60 -39.5t45 -75.5 t17 -113.5q0 -120 -68 -194t-177 -74q-54 0 -88 24z" />
<glyph unicode="q" horiz-adv-x="548" d="M383 111v308q-40 16 -84 16q-80 0 -119.5 -53t-39.5 -144q0 -88 35.5 -137.5t93.5 -49.5q73 0 114 60zM469 449v-618q46 -4 82 -14q3 -12 3 -31q0 -11 -1 -17h-253q3 25 14 45q27 11 68 19v102q0 58 5 125h-10q-13 -34 -49 -55.5t-93 -21.5q-35 0 -66.5 12.5t-59 39.5 t-44 75.5t-16.5 113.5q0 120 66.5 194t174.5 74q99 0 179 -43z" />
<glyph unicode="r" horiz-adv-x="401" d="M190 385h10q11 47 46.5 77t83.5 30q26 0 45 -8q13 -22 13 -60q0 -15 -3 -27q-28 17 -68 17q-79 0 -115 -82v-268q59 -4 99 -18q5 -22 2 -46h-266q3 25 14 45q26 11 64 19v355h-73q2 29 18 53q38 14 83 14q26 0 47 -6v-95z" />
<glyph unicode="s" horiz-adv-x="430" d="M296 369v59q-28 12 -59 12q-39 0 -60.5 -16.5t-21.5 -44.5q0 -30 24 -51.5t58.5 -36t68.5 -32t58 -51t24 -81.5q0 -73 -51.5 -108.5t-128.5 -35.5q-88 0 -153 38q-5 18 -5 48q0 35 10 71q40 0 72 -9v-69q35 -23 84 -23q38 0 61 20.5t23 54.5q0 32 -24 54t-59 36t-69.5 31 t-58.5 50t-24 82q0 55 46 90t120 35q76 0 141 -26q2 -9 2 -31q0 -41 -11 -81q-41 0 -67 15z" />
<glyph unicode="t" horiz-adv-x="350" d="M93 487l17 110q30 16 67 16v-138h145q6 -32 3 -58h-148v-275q0 -52 12.5 -72.5t52.5 -20.5q43 0 93 13q1 -4 1 -13q0 -21 -10 -39q-64 -27 -123 -27t-87.5 34.5t-28.5 110.5q0 163 5 289h-69q0 26 12 52q26 11 58 18z" />
<glyph unicode="u" horiz-adv-x="598" d="M398 113v306h-72q2 29 18 53q36 14 90 14q28 0 51 -6v-348q0 -40 8 -71h76q1 -4 1 -13q0 -20 -8 -40q-60 -20 -137 -20q-17 30 -20 79h-5q-17 -32 -58 -58t-101 -26q-69 0 -108 37t-39 143q0 151 5 256h-76q4 32 18 52q38 15 91 15q28 0 51 -6v-303q0 -125 92 -125 q35 0 70.5 19t52.5 42z" />
<glyph unicode="v" horiz-adv-x="518" d="M266 59h7q11 49 23 86l59 177q13 42 37 89q-37 4 -59 13q-8 24 -8 51h189q0 -27 -10 -55q-20 -7 -47 -9l-154 -414l-91 -10l-148 419q-31 7 -51 17q-8 23 -10 52h224q0 -25 -8 -53q-30 -7 -71 -11q20 -36 36 -85l62 -185q11 -34 20 -82z" />
<glyph unicode="w" horiz-adv-x="771" d="M239 58h7q4 28 18 86l82 327l106 11l78 -341q3 -11 15 -83h7q8 44 18 86l47 178q11 44 30 89q-37 4 -58 13q-8 24 -8 51h181q0 -26 -10 -54q-25 -8 -45 -10l-121 -413l-97 -11l-77 320q-14 57 -19 108h-7q-7 -58 -21 -111l-79 -306l-102 -11l-114 419q-32 7 -52 17 q-8 25 -10 52h216q0 -25 -8 -51q-33 -9 -69 -12q21 -42 32 -88l45 -183q11 -44 15 -83z" />
<glyph unicode="x" horiz-adv-x="554" d="M271 199l-70 -99q-19 -26 -32 -38q34 -2 61 -12q9 -18 9 -50h-222q3 25 14 47q21 11 62 21l140 179l-125 160q-33 7 -54 17q-9 21 -11 51h208q0 -24 -6 -50q-22 -9 -48 -12q18 -14 39 -40l61 -79l61 83q16 23 32 35q-27 3 -52 13q-8 24 -8 50h182q0 -27 -10 -53 q-21 -8 -45 -10l-125 -165l144 -185q33 -2 57 -11q10 -24 10 -51h-226q3 26 14 50q28 10 56 12q-35 32 -45 46z" />
<glyph unicode="y" horiz-adv-x="519" d="M269 55h7q19 76 27 100l50 159q20 64 37 97q-38 4 -60 13q-8 24 -8 51h191q0 -27 -10 -55q-21 -7 -47 -9l-57 -166q-74 -218 -113 -295q-71 -143 -202 -190q-32 30 -37 74q66 18 112.5 57t68.5 90l-163 425q-32 7 -52 17q-8 23 -10 52h226q0 -24 -8 -52q-30 -8 -73 -12 q17 -32 36 -84l63 -175q12 -32 22 -97z" />
<glyph unicode="z" horiz-adv-x="459" d="M55 0l-11 43l259 369v7h-165q-3 -34 -18 -71q-39 0 -63 10v117h347l11 -43l-259 -369v-7q106 0 189 9q7 33 22 71q20 5 39 5q15 0 25 -2l-17 -139h-359z" />
<glyph unicode="{" horiz-adv-x="342" d="M281 -145q2 -11 1 -30t-4 -27q-83 4 -117 42.5t-34 109.5v182q0 67 -15 96t-64 33q0 31 10 56q43 4 56 31t13 85v158q0 77 34.5 119.5t123.5 46.5q0 -34 -12 -60q-34 -4 -47.5 -27t-13.5 -73v-158q0 -125 -78 -147v-5q43 -12 60.5 -44.5t17.5 -93.5v-184q0 -104 69 -110z " />
<glyph unicode="|" horiz-adv-x="300" d="M185 756v-940q-6 -2 -32 -2t-34 2v935q27 5 66 5z" />
<glyph unicode="}" horiz-adv-x="342" d="M62 -145q32 2 50.5 28t18.5 70v186q0 66 17 101.5t61 46.5v5q-78 23 -78 141v156q0 58 -16.5 83t-56.5 29q0 34 14 56q144 -11 144 -158v-160q0 -60 13.5 -89.5t60.5 -32.5q7 -23 7 -56q-46 -4 -63.5 -29.5t-17.5 -86.5v-185q0 -76 -33 -117t-118 -45q-3 8 -4 28.5 t1 28.5z" />
<glyph unicode="~" horiz-adv-x="570" d="M96 213q-21 14 -34 40q21 30 57.5 50t77.5 20q40 0 96.5 -24.5t88.5 -24.5q50 0 78 42q26 -5 50 -21q-20 -37 -59 -60.5t-84 -23.5q-47 0 -99 24.5t-85 24.5q-53 0 -87 -47z" />
<glyph unicode="&#xa2;" horiz-adv-x="493" d="M364 364v71q-32 15 -62 15q-73 0 -115.5 -41.5t-42.5 -126.5t44.5 -129.5t119.5 -44.5q55 0 131 26q1 -11 -3.5 -30t-10.5 -29q-43 -23 -114 -33v-81q-10 -2 -33 -2q-22 0 -34 2v79q-89 8 -142 70t-53 153q0 97 58.5 163.5t154.5 78.5v58q27 5 67 5v-61q61 -6 110 -35 q3 -20 3 -39q0 -46 -15 -82q-37 0 -63 13z" />
<glyph unicode="&#xa3;" horiz-adv-x="543" d="M64 294h70q-14 72 -14 99q0 72 51 111t147 39q70 0 140 -25q2 -12 2 -31q0 -55 -11 -92q-40 0 -66 13v66q-35 12 -67 12q-50 0 -78 -25t-28 -67q0 -24 13 -100h184q6 -28 2 -59h-180q2 -14 2 -35q0 -39 -17 -77t-40 -57v-5h244q5 46 15 77q33 7 57 4v-142h-459 q2 26 14 48q24 13 64 21q37 63 37 119q0 17 -2 47h-88q0 35 8 59z" />
<glyph unicode="&#xa5;" horiz-adv-x="562" d="M85 165h154v26l-24 40h-137q0 27 7 48h102l-102 174q-31 8 -55 22q-8 19 -8 48h235q0 -23 -8 -51q-26 -10 -72 -14q22 -20 37 -47l61 -112q13 -24 20 -45h7q8 20 22 45l64 110q18 31 37 49q-42 6 -64 15q-9 23 -9 50h197q0 -24 -12 -53q-23 -8 -46 -10l-111 -181h98 q6 -24 2 -48h-130l-22 -37v-29h150q6 -24 2 -48h-152v-51q47 -4 88 -16q6 -27 3 -50h-265q2 26 14 48q30 14 71 21v48h-161q0 27 7 48z" />
<glyph unicode="&#xa8;" d="M107 672q24 0 38 -13t14 -37q0 -26 -14 -40t-38 -14q-53 0 -53 54q0 22 15 36t38 14zM314 672q24 0 38 -13t14 -37q0 -26 -14 -40t-38 -14q-53 0 -53 54q0 22 15 36t38 14z" />
<glyph unicode="&#xa9;" horiz-adv-x="817" d="M764 336q0 -148 -105.5 -252t-256.5 -104q-150 0 -251 101.5t-101 250.5t105 253t255 104q149 0 251.5 -103t102.5 -250zM703 333q0 125 -86 214.5t-210 89.5t-210 -88.5t-86 -213.5q0 -126 87 -215t211 -89q123 0 208.5 88t85.5 214zM471 413v56q-20 10 -48 10 q-47 0 -76.5 -35t-29.5 -103q0 -143 120 -143q48 0 100 20q2 -25 -11 -51q-53 -29 -124 -29q-77 0 -125.5 53t-48.5 135q0 95 56.5 150t139.5 55q69 0 114 -20q0 -56 -9 -110q-36 0 -58 12z" />
<glyph unicode="&#xab;" horiz-adv-x="538" d="M171 250q35 -88 88 -192q-30 -13 -74 -13q-68 110 -113 205q33 75 102 188q41 13 89 13q-61 -119 -92 -201zM362 253q35 -88 88 -192q-30 -13 -75 -13q-68 110 -113 205q33 75 102 188q41 13 90 13q-61 -119 -92 -201z" />
<glyph unicode="&#xad;" horiz-adv-x="336" d="M55 308h226q4 -24 4 -53q0 -13 -1 -21h-239q0 42 10 74z" />
<glyph unicode="&#xae;" horiz-adv-x="548" d="M493 551q0 -96 -62.5 -158.5t-159.5 -62.5q-96 0 -156 61t-60 157t62 157t160 61q97 0 156.5 -60t59.5 -155zM443 546q0 77 -47.5 127t-123.5 50q-74 0 -121 -49.5t-47 -123.5q0 -76 47.5 -127t123.5 -51q74 0 121 49t47 125zM200 468v165q-14 0 -28 2q-4 16 -1 28 q41 4 102 4q43 0 70.5 -17t27.5 -50q0 -24 -14 -40.5t-34 -20.5q18 -35 41 -72l27 3q0 -18 -7 -30q-18 -5 -51 -7q-30 50 -54 99q-16 0 -32 2v-65q19 -2 31 -7q2 -12 1 -23h-113q2 13 6 22q14 7 28 7zM247 563q16 -2 32 -2q19 0 32.5 10t13.5 27q0 38 -60 38q-11 0 -18 -1 v-72z" />
<glyph unicode="&#xb4;" d="M301 703l-149 -164q-11 4 -27.5 18t-23.5 25l112 156q16 0 45 -12t43 -23z" />
<glyph unicode="&#xb8;" d="M159 -77l35 84q22 6 55 6l-14 -72q25 -6 44 -24.5t19 -45.5q0 -39 -36.5 -67t-85.5 -34q-20 16 -33 37q31 5 50.5 21t19.5 39q0 21 -15 35.5t-39 20.5z" />
<glyph unicode="&#xbb;" horiz-adv-x="538" d="M165 250q-31 81 -85 187q36 15 72 15q76 -123 111 -202q-39 -84 -115 -208q-41 4 -69 22q58 116 86 186zM359 253q-31 81 -85 187q36 15 73 15q76 -123 111 -202q-39 -85 -115 -208q-42 4 -70 22q58 116 86 186z" />
<glyph unicode="&#xc4;" horiz-adv-x="738" d="M721 0h-249q4 30 13 53q25 7 74 12q-21 30 -39 77l-32 85h-265l-33 -90q-12 -34 -36 -75q47 -2 84 -9q8 -26 8 -53h-238q3 27 16 53q19 7 53 11l258 644h64l248 -642q34 -2 63 -9q9 -28 11 -57zM359 596h-7q-7 -42 -28 -96l-80 -216h222l-82 218q-20 53 -25 94zM243 874 q28 0 44.5 -14t16.5 -40q0 -27 -16.5 -42.5t-44.5 -15.5q-62 0 -62 58q0 25 17 39.5t45 14.5zM484 874q28 0 44.5 -14t16.5 -40q0 -27 -16.5 -42.5t-44.5 -15.5q-62 0 -62 58q0 25 17 39.5t45 14.5z" />
<glyph unicode="&#xd6;" horiz-adv-x="721" d="M229 874q28 0 44.5 -14t16.5 -40q0 -27 -16.5 -42.5t-44.5 -15.5q-62 0 -62 58q0 25 17 39.5t45 14.5zM510 874q28 0 44.5 -14t16.5 -40q0 -27 -16.5 -42.5t-44.5 -15.5q-62 0 -62 58q0 25 17 39.5t45 14.5zM362 714q144 0 229 -93.5t85 -263.5q0 -178 -85 -277.5 t-229 -99.5q-154 0 -235.5 96.5t-81.5 280.5q0 163 89 260t228 97zM144 357q0 -143 58 -226.5t160 -83.5q106 0 160.5 81.5t54.5 228.5q0 127 -59.5 209t-155.5 82q-105 0 -161.5 -78t-56.5 -213z" />
<glyph unicode="&#xdc;" horiz-adv-x="704" d="M188 630v-373q0 -212 176 -212q90 0 135 59.5t45 154.5v371q-41 2 -68 7q-3 10 -3.5 29t1.5 28h219q2 -8 2 -21q0 -19 -4 -35q-29 -6 -71 -8v-365q0 -132 -68.5 -208.5t-207.5 -76.5q-248 0 -248 269v379q-55 6 -75 9q-8 19 -8 57h264q2 -9 1.5 -27.5t-3.5 -28.5 q-35 -6 -87 -8zM249 874q28 0 44.5 -14t16.5 -40q0 -27 -16.5 -42.5t-44.5 -15.5q-62 0 -62 58q0 25 17 39.5t45 14.5zM490 874q28 0 44.5 -14t16.5 -40q0 -27 -16.5 -42.5t-44.5 -15.5q-62 0 -62 58q0 25 17 39.5t45 14.5z" />
<glyph unicode="&#xdf;" horiz-adv-x="644" d="M117 64v345q-37 2 -69 8q-7 33 -1 58h72q0 265 238 265q45 0 84.5 -10.5t71 -40.5t31.5 -76q0 -26 -12 -50t-24 -37t-33 -31q-46 -42 -46 -78q0 -27 14 -49t27.5 -32.5t43.5 -30.5q50 -32 77.5 -69t27.5 -98q0 -75 -54.5 -115t-129.5 -40q-77 0 -144 38q-5 18 -5 43 q0 46 10 69q36 0 66 -9v-60q38 -25 81 -25q40 0 65.5 25.5t25.5 63.5q0 29 -14 52t-28.5 34.5t-44.5 30.5q-34 22 -52 37t-35.5 47.5t-17.5 74.5q0 67 71 127q25 21 36 37t11 37q0 39 -31.5 57.5t-74.5 18.5q-81 0 -115.5 -52t-34.5 -158v-471h-165q3 25 14 45q26 11 64 19z " />
<glyph unicode="&#xe4;" horiz-adv-x="507" d="M333 59h-5q-19 -36 -56.5 -56t-83.5 -20q-59 0 -100.5 34.5t-41.5 99.5q0 74 53.5 115t132.5 41q54 0 93 -17v54q0 112 -95 112q-31 0 -75 -15t-71 -34q-5 11 -5 34q0 32 11 50q25 14 74 24.5t89 10.5q83 0 120 -44t37 -146v-194q0 -39 13 -52q31 0 69 12q1 -4 1 -11 q0 -25 -10 -45q-17 -11 -50 -20t-58 -9q-15 9 -27.5 30.5t-14.5 45.5zM326 101v111q-30 8 -70 8q-58 0 -90 -24t-32 -64q0 -39 26 -59.5t65 -20.5q30 0 58 13.5t43 35.5zM141 672q24 0 38 -13t14 -37q0 -26 -14 -40t-38 -14q-53 0 -53 54q0 22 15 36t38 14zM348 672 q24 0 38 -13t14 -37q0 -26 -14 -40t-38 -14q-53 0 -53 54q0 22 15 36t38 14z" />
<glyph unicode="&#xf6;" horiz-adv-x="553" d="M155 672q24 0 38 -13t14 -37q0 -26 -14 -40t-38 -14q-53 0 -53 54q0 22 15 36t38 14zM402 672q24 0 38 -13t14 -37q0 -26 -14 -40t-38 -14q-53 0 -53 54q0 22 15 36t38 14zM277 492q104 0 165.5 -65t61.5 -182q0 -124 -61 -193t-166 -69q-110 0 -169 67t-59 195 q0 113 64 180t164 67zM140 245q0 -92 37 -147t100 -55q67 0 101.5 53.5t34.5 148.5q0 82 -37.5 135t-98.5 53q-66 0 -101.5 -51t-35.5 -137z" />
<glyph unicode="&#xfc;" horiz-adv-x="598" d="M398 113v306h-72q2 29 18 53q36 14 90 14q28 0 51 -6v-348q0 -40 8 -71h76q1 -4 1 -13q0 -20 -8 -40q-60 -20 -137 -20q-17 30 -20 79h-5q-17 -32 -58 -58t-101 -26q-69 0 -108 37t-39 143q0 151 5 256h-76q4 32 18 52q38 15 91 15q28 0 51 -6v-303q0 -125 92 -125 q35 0 70.5 19t52.5 42zM179 672q24 0 38 -13t14 -37q0 -26 -14 -40t-38 -14q-53 0 -53 54q0 22 15 36t38 14zM386 672q24 0 38 -13t14 -37q0 -26 -14 -40t-38 -14q-53 0 -53 54q0 22 15 36t38 14z" />
<glyph unicode="&#x10c;" horiz-adv-x="620" d="M495 526v102q-49 22 -108 22q-105 0 -173 -76.5t-68 -215.5q0 -149 64 -224.5t175 -75.5q90 0 187 35q3 -29 -11 -63q-96 -50 -213 -50q-133 0 -216.5 99t-83.5 253q0 175 99.5 278.5t245.5 103.5q106 0 185 -38q0 -103 -12 -166q-39 0 -71 16zM428 748h-112l-127 110 q21 24 65 32l129 -71l118 68q31 -9 50 -32z" />
<glyph unicode="&#x10d;" horiz-adv-x="466" d="M350 348v71q-30 15 -58 15q-68 0 -108 -47t-40 -141q0 -95 42.5 -144.5t113.5 -49.5q59 0 123 24q2 -30 -14 -57q-68 -36 -148 -36q-95 0 -153.5 68.5t-58.5 175.5q0 117 68 191t177 74q75 0 131 -36q2 -20 2 -36q0 -49 -14 -85q-37 0 -63 13zM316 544l-85 -3l-119 151 q15 19 66 22l105 -101l101 103q29 -5 52 -26z" />
<glyph unicode="&#x160;" horiz-adv-x="540" d="M395 546v84q-38 22 -94 22q-61 0 -97.5 -29t-36.5 -73q0 -41 24.5 -71t61 -47t79.5 -38.5t79.5 -43.5t61 -64t24.5 -98t-20.5 -98t-56.5 -65t-79 -34t-94 -11q-110 0 -199 38q0 97 11 168q42 0 74 -10v-102q54 -30 129 -30q70 0 106 33t36 94q0 37 -18.5 64.5t-47.5 45 t-64.5 32.5t-71 32.5t-64.5 40t-47.5 60.5t-18.5 89q0 80 59 129.5t160 49.5q98 0 185 -34q0 -87 -14 -148q-39 0 -67 14zM338 748h-112l-127 110q21 24 65 32l129 -71l118 68q31 -9 50 -32z" />
<glyph unicode="&#x161;" horiz-adv-x="430" d="M296 369v59q-28 12 -59 12q-39 0 -60.5 -16.5t-21.5 -44.5q0 -30 24 -51.5t58.5 -36t68.5 -32t58 -51t24 -81.5q0 -73 -51.5 -108.5t-128.5 -35.5q-88 0 -153 38q-5 18 -5 48q0 35 10 71q40 0 72 -9v-69q35 -23 84 -23q38 0 61 20.5t23 54.5q0 32 -24 54t-59 36t-69.5 31 t-58.5 50t-24 82q0 55 46 90t120 35q76 0 141 -26q2 -9 2 -31q0 -41 -11 -81q-41 0 -67 15zM264 544l-85 -3l-119 151q15 19 66 22l105 -101l101 103q29 -5 52 -26z" />
<glyph unicode="&#x17d;" horiz-adv-x="561" d="M41 0v70l371 551v7h-275q-2 -43 -15 -92q-32 -7 -67 -7v165h460v-71l-365 -548v-7h297q2 46 13 98q29 9 66 9v-175h-485zM342 748h-112l-127 110q21 24 65 32l129 -71l118 68q31 -9 50 -32z" />
<glyph unicode="&#x17e;" horiz-adv-x="459" d="M55 0l-11 43l259 369v7h-165q-3 -34 -18 -71q-39 0 -63 10v117h347l11 -43l-259 -369v-7q106 0 189 9q7 33 22 71q20 5 39 5q15 0 25 -2l-17 -139h-359zM277 544l-85 -3l-119 151q15 19 66 22l105 -101l101 103q29 -5 52 -26z" />
<glyph unicode="&#x2c6;" d="M177 715l84 4l114 -136q-8 -12 -25 -24.5t-32 -15.5l-100 100l-107 -104q-11 5 -23.5 21.5t-16.5 29.5z" />
<glyph unicode="&#x2da;" d="M212 746q48 0 77.5 -26t29.5 -71q0 -50 -29 -77t-78 -27q-111 0 -111 104q0 43 30.5 70t80.5 27zM213 703q-25 0 -40 -14.5t-15 -39.5q0 -60 55 -60q50 0 50 60q0 26 -13.5 40t-36.5 14z" />
<glyph unicode="&#x2dc;" d="M329 677q23 0 39 -8q-3 -43 -28 -75t-71 -32q-24 0 -64 21.5t-59 21.5t-33.5 -12.5t-18.5 -29.5q-25 3 -37 22q18 93 102 93q29 0 66 -20.5t57 -20.5q18 0 31 11.5t16 28.5z" />
<glyph unicode="&#x2000;" horiz-adv-x="445" />
<glyph unicode="&#x2001;" horiz-adv-x="890" />
<glyph unicode="&#x2002;" horiz-adv-x="445" />
<glyph unicode="&#x2003;" horiz-adv-x="890" />
<glyph unicode="&#x2004;" horiz-adv-x="296" />
<glyph unicode="&#x2005;" horiz-adv-x="222" />
<glyph unicode="&#x2006;" horiz-adv-x="148" />
<glyph unicode="&#x2007;" horiz-adv-x="148" />
<glyph unicode="&#x2008;" horiz-adv-x="111" />
<glyph unicode="&#x2009;" horiz-adv-x="178" />
<glyph unicode="&#x200a;" horiz-adv-x="49" />
<glyph unicode="&#x2010;" horiz-adv-x="336" d="M55 308h226q4 -24 4 -53q0 -13 -1 -21h-239q0 42 10 74z" />
<glyph unicode="&#x2011;" horiz-adv-x="336" d="M55 308h226q4 -24 4 -53q0 -13 -1 -21h-239q0 42 10 74z" />
<glyph unicode="&#x2012;" horiz-adv-x="336" d="M55 308h226q4 -24 4 -53q0 -13 -1 -21h-239q0 42 10 74z" />
<glyph unicode="&#x2013;" horiz-adv-x="500" d="M47 307h412q4 -22 4 -49q0 -12 -1 -19h-424q0 34 9 68z" />
<glyph unicode="&#x2014;" horiz-adv-x="1000" d="M47 307h902q4 -22 4 -49q0 -12 -1 -19h-914q0 34 9 68z" />
<glyph unicode="&#x2018;" horiz-adv-x="248" d="M204 703q-37 -89 -53 -163l40 -10q-3 -13 -15 -34.5t-23 -32.5q-59 6 -101 32q31 110 87 201q28 7 65 7z" />
<glyph unicode="&#x2019;" horiz-adv-x="246" d="M92 631l-40 10q12 42 32 65q17 4 40 4q35 0 70 -11q-11 -53 -40 -124.5t-53 -111.5q-31 9 -48 26q31 85 39 142z" />
<glyph unicode="&#x201a;" horiz-adv-x="249" d="M92 18l-40 10q12 43 32 66q17 4 40 4q38 0 72 -12q-11 -53 -40.5 -126t-53.5 -113q-27 7 -50 26q31 88 40 145z" />
<glyph unicode="&#x201c;" horiz-adv-x="420" d="M200 703q-37 -89 -53 -163l40 -10q-3 -13 -15 -34.5t-23 -32.5q-56 6 -98 32q31 110 87 201q28 7 62 7zM378 703q-37 -89 -53 -163l40 -10q-3 -13 -15 -34.5t-23 -32.5q-56 6 -98 32q31 110 87 201q28 7 62 7z" />
<glyph unicode="&#x201d;" horiz-adv-x="422" d="M92 631l-40 10q12 42 32 65q17 4 39 4q33 0 68 -11q-11 -53 -40 -124.5t-53 -111.5q-27 8 -45 26q31 85 39 142zM270 631l-40 10q12 42 32 65q17 4 39 4q33 0 68 -11q-11 -53 -40 -124.5t-53 -111.5q-27 8 -45 26q31 85 39 142z" />
<glyph unicode="&#x201e;" horiz-adv-x="422" d="M91 18l-40 10q12 43 32 66q17 4 39 4q37 0 71 -12q-11 -53 -40.5 -126t-53.5 -113q-24 7 -48 26q31 88 40 145zM270 18l-40 10q12 43 32 66q17 4 39 4q37 0 71 -12q-11 -53 -40.5 -126t-53.5 -113q-24 7 -48 26q31 88 40 145z" />
<glyph unicode="&#x2026;" horiz-adv-x="834" d="M697 115q28 0 45 -16t17 -45q0 -31 -17 -48.5t-45 -17.5q-64 0 -64 66q0 27 18 44t46 17zM145 115q28 0 45 -16t17 -45q0 -31 -17 -48.5t-45 -17.5q-64 0 -64 66q0 27 18 44t46 17zM421 115q28 0 45 -16t17 -45q0 -31 -17 -48.5t-45 -17.5q-64 0 -64 66q0 27 18 44t46 17 z" />
<glyph unicode="&#x202f;" horiz-adv-x="178" />
<glyph unicode="&#x2039;" horiz-adv-x="343" d="M171 250q35 -88 88 -192q-30 -13 -74 -13q-68 110 -113 205q33 75 102 188q41 13 89 13q-61 -119 -92 -201z" />
<glyph unicode="&#x203a;" horiz-adv-x="343" d="M178 250q-31 81 -85 187q36 15 72 15q76 -123 111 -202q-39 -84 -115 -208q-41 4 -69 22q58 116 86 186z" />
<glyph unicode="&#x205f;" horiz-adv-x="222" />
<glyph unicode="&#x20ac;" horiz-adv-x="572" d="M35 333h69q24 95 97 152.5t176 57.5q88 0 153 -39q3 -21 3 -39q0 -48 -16 -84q-39 0 -65 13v71q-39 19 -79 19q-68 0 -114.5 -38.5t-61.5 -112.5h211q6 -24 2 -51h-382q0 28 7 51zM35 213h373q6 -24 2 -51h-203q40 -109 165 -109q86 0 157 26q1 -11 -4 -30t-11 -29 q-82 -40 -172 -40q-87 0 -150.5 49.5t-86.5 132.5h-77q0 30 7 51z" />
<glyph unicode="&#x2122;" horiz-adv-x="922" d="M534 409h-141q2 19 9 35q19 6 42 8v198q-33 3 -47 5q-5 21 -1 39h140l66 -174q15 -42 19 -70h5q9 40 20 70l69 174h135q4 -17 -1 -39q-28 -4 -47 -4v-200q29 -2 51 -7q3 -9 3 -23q0 -8 -1 -12h-162q2 21 9 35q16 5 41 8v199h-5q-3 -24 -24 -85l-66 -162h-63l-65 163 q-18 45 -24 84h-5v-201q28 -2 41 -5q2 -6 3 -18t-1 -18zM238 654v-202q35 -2 61 -7q2 -6 3 -18t-1 -18h-187q2 21 10 35q18 6 50 8v202h-62q-2 -35 -8 -58q-15 -7 -43 -7v105h293v-104q-25 0 -43 3q-8 28 -10 61h-63z" />
<glyph unicode="&#xe000;" horiz-adv-x="475" d="M0 475h475v-475h-475v475z" />
</font>
</defs>
</svg>
