<?xml version="1.0" standalone="no"?>
<!DOCTYPE svg PUBLIC "-//W3C//DTD SVG 1.1//EN" "http://www.w3.org/Graphics/SVG/1.1/DTD/svg11.dtd" >
<svg xmlns="http://www.w3.org/2000/svg">
<metadata>
This is a custom SVG webfont generated by Font Squirrel.
Copyright   : 2008 Mitja Miklavcic published by FSI FontShop International GmbH
Designer    : Mitja Miklavcic
Foundry     : FSI
Foundry URL : httpwwwfontfontcom
</metadata>
<defs>
<font id="TisaOTBold" horiz-adv-x="570" >
<font-face units-per-em="1000" ascent="729" descent="-271" />
<missing-glyph horiz-adv-x="215" />
<glyph unicode=" "  horiz-adv-x="215" />
<glyph unicode="&#x09;" horiz-adv-x="215" />
<glyph unicode="&#xa0;" horiz-adv-x="215" />
<glyph unicode="!" horiz-adv-x="390" d="M279 709l-32 -484q-22 -5 -53 -5t-54 5l-42 472q55 16 127 16q26 0 54 -4zM193 152q38 0 61.5 -22t23.5 -61q0 -42 -23.5 -65.5t-61.5 -23.5q-86 0 -86 89q0 37 24 60t62 23z" />
<glyph unicode="&#x22;" horiz-adv-x="462" d="M371 417q-39 0 -89 11q7 150 7 288q66 0 128 -16q0 -51 -15 -138t-31 -145zM156 417q-40 0 -89 11q7 150 7 288q66 0 128 -16q0 -51 -15 -138t-31 -145z" />
<glyph unicode="#" horiz-adv-x="685" d="M624 134h-108l-20 -131q-20 -6 -63 -6t-62 6l22 131h-143l-20 -131q-20 -6 -63 -6t-62 6l22 131h-100q3 40 20 86h97l20 119h-106q3 40 20 86h103l19 112q53 12 120 12l-19 -124h146l19 112q53 12 120 12l-19 -124h91q2 -14 2 -30q0 -36 -5 -56h-104l-19 -119h95 q2 -13 1.5 -42.5t-4.5 -43.5zM285 339l-19 -119h144l20 119h-145z" />
<glyph unicode="$" horiz-adv-x="555" d="M337 420v47q-21 8 -48 8q-62 0 -62 -47q0 -24 20.5 -41.5t51 -27t66.5 -24t66.5 -32t51 -52t20.5 -82.5q0 -76 -44 -122t-119 -60v-85q-16 -5 -62 -5t-66 5v81q-86 10 -150 46q-4 17 -4 50q0 50 13 91q80 0 138 -20v-62q31 -15 75 -15q71 0 71 59q0 23 -15.5 40 t-39.5 27.5t-53.5 20t-59.5 22.5t-54 31t-39.5 49t-15.5 72q0 63 38.5 105t106.5 56v73q49 11 128 11v-81q77 -10 133 -40q2 -16 2 -34q0 -50 -14 -94q-83 0 -135 30z" />
<glyph unicode="%" horiz-adv-x="962" d="M201 562q83 0 131.5 -42.5t48.5 -121.5q0 -82 -48 -126t-132 -44q-180 0 -180 170q0 74 50 119t130 45zM143 398q0 -39 15.5 -62t42.5 -23q56 0 56 85q0 35 -14.5 56.5t-41.5 21.5q-28 0 -43 -20.5t-15 -57.5zM760 314q83 0 131.5 -42.5t48.5 -121.5q0 -82 -48 -126 t-132 -44q-180 0 -180 170q0 74 50 119t130 45zM702 150q0 -39 15.5 -62t42.5 -23q56 0 56 85q0 35 -14.5 56.5t-41.5 21.5q-28 0 -43 -20.5t-15 -57.5zM735 546l-396 -591q-23 4 -55 21t-45 30l377 566q66 -2 119 -26z" />
<glyph unicode="&#x26;" horiz-adv-x="858" d="M740 319q-22 -98 -76 -177q29 -29 42 -45q46 -4 72 -12q13 -33 13 -85h-178l-48 60q-96 -80 -236 -80q-51 0 -97.5 11t-86.5 33.5t-64 62.5t-24 93q0 67 43 117t107 68v9q-89 49 -89 142q0 92 66.5 140t150.5 48q78 0 141 -42t63 -121q0 -59 -38 -105t-93 -61v-9 q88 -60 172 -137q19 43 29 93q-30 5 -45 10q-12 36 -14 83h273q0 -49 -17 -89q-29 -5 -66 -7zM495 135q-98 100 -218 179q-78 -48 -78 -119q0 -60 40 -88.5t103 -28.5q93 0 153 57zM335 425q64 37 64 107q0 42 -21 62.5t-48 20.5q-25 0 -47.5 -18.5t-22.5 -59.5 q0 -36 18 -62t57 -50z" />
<glyph unicode="'" horiz-adv-x="248" d="M156 417q-40 0 -89 11q7 150 7 288q66 0 128 -16q0 -51 -15 -138t-31 -145z" />
<glyph unicode="(" horiz-adv-x="355" d="M189 -219q-118 259 -118 510q0 249 99 473q20 10 65 16.5t79 6.5q-96 -213 -96 -489q0 -257 85 -472q-43 -27 -114 -45z" />
<glyph unicode=")" horiz-adv-x="355" d="M59 -178q89 218 89 470q0 271 -74 469q42 30 117 36q52 -119 77.5 -252t25.5 -246q0 -261 -119 -521q-73 14 -116 44z" />
<glyph unicode="*" horiz-adv-x="486" d="M385 408l-70 60q-40 36 -42 39l-6 -5q15 -29 18 -55l12 -85q-21 -6 -55 -6q-35 0 -59 6l12 85q4 30 15 52l-7 6q-8 -10 -38 -37l-66 -59q-13 14 -30.5 46t-23.5 53l77 25q34 12 57 17v8q-15 1 -57 16l-74 26q2 20 17 53t30 49l69 -51q19 -13 39 -39l8 5q-12 24 -16 53 l-9 77q47 9 108 9l-9 -86q-5 -34 -18 -55l9 -6q17 21 41 40l67 51q39 -35 68 -87l-93 -39q-27 -12 -56 -15v-8q20 -1 56 -14l86 -29q-6 -21 -25.5 -53t-34.5 -47z" />
<glyph unicode="+" d="M353 325h179q7 -30 7 -76q0 -14 -2 -32h-184v-194q-23 -7 -65 -7q-40 0 -70 7v194h-189q0 55 17 108h172v185q50 12 135 12v-197z" />
<glyph unicode="," horiz-adv-x="285" d="M104 14l-60 13q17 64 46 95q22 6 56 6q55 0 106 -17q-12 -73 -50 -169t-74 -154q-48 13 -74 37q38 107 50 189z" />
<glyph unicode="-" horiz-adv-x="406" d="M340 218h-287q0 60 18 116h263q8 -32 8 -82q0 -14 -2 -34z" />
<glyph unicode="." horiz-adv-x="328" d="M165 176q41 0 66.5 -24t25.5 -67q0 -46 -25.5 -72t-66.5 -26q-95 0 -95 98q0 41 26.5 66t68.5 25z" />
<glyph unicode="/" horiz-adv-x="498" d="M519 747l-352 -925q-73 14 -116 40l343 902q72 0 125 -17z" />
<glyph unicode="0" horiz-adv-x="674" d="M338 562q134 0 210.5 -73.5t76.5 -209.5q0 -145 -76 -222t-211 -77q-140 0 -214.5 75.5t-74.5 223.5q0 130 80 206.5t209 76.5zM203 279q0 -92 36 -146.5t99 -54.5q65 0 99 53t34 148q0 82 -36 134.5t-97 52.5q-65 0 -100 -50.5t-35 -136.5z" />
<glyph unicode="1" horiz-adv-x="515" d="M205 111v322l-145 -19q3 66 22 102q119 40 274 46v-451q64 -6 113 -23q7 -23 7 -62q0 -12 -2 -26h-395q7 48 26 85q42 17 100 26z" />
<glyph unicode="2" horiz-adv-x="592" d="M205 358q-47 -25 -125 -27q-15 69 -15 129q0 31 4 51q113 51 232 51q100 0 160 -32t60 -103q0 -38 -19 -76.5t-43 -67t-67 -62.5t-69.5 -52t-71.5 -46v-12q175 6 289 20q2 -22 2 -39q0 -57 -8 -92h-460l-17 96q20 17 63.5 48.5t81 60t76 62t61 68t22.5 64.5q0 63 -76 63 q-46 0 -80 -18v-86z" />
<glyph unicode="3" horiz-adv-x="599" d="M203 451v-64q-41 -25 -123 -29q-15 53 -15 112q0 32 2 49q108 43 226 43q94 0 160.5 -40t66.5 -117q0 -55 -32.5 -98.5t-79.5 -61.5v-9q57 -12 93 -47.5t36 -93.5q0 -98 -89.5 -155t-211.5 -57q-85 0 -164 24q-22 34 -22 92q0 8 1 14q88 -26 176 -26q62 0 105 24t43 73 q0 48 -48 71t-159 23q-13 26 -13 63q0 19 3 33q84 3 143 32.5t59 86.5q0 36 -24.5 53t-59.5 17q-39 0 -73 -12z" />
<glyph unicode="4" horiz-adv-x="614" d="M490 67v-163q-25 -7 -70 -7q-49 0 -74 7v163h-304l-20 74q124 209 309 421l159 -23v-366h84q7 -26 7 -74q0 -14 -2 -32h-89zM346 173v151q0 48 8 86h-12q-42 -47 -88 -112.5t-75 -118.5v-12q39 6 86 6h81z" />
<glyph unicode="5" horiz-adv-x="561" d="M97 542h411q0 -67 -16 -126q-122 7 -267 10l-11 -131q35 5 66 5q104 0 165.5 -45t61.5 -138q0 -112 -86.5 -173t-209.5 -61q-76 0 -147 19q-22 37 -22 87q0 11 1 18q79 -19 154 -19q66 0 108.5 30.5t42.5 90.5q0 93 -116 93q-64 0 -163 -20z" />
<glyph unicode="6" horiz-adv-x="616" d="M218 361h12q42 52 130 52q93 0 150 -57t57 -142q0 -104 -71.5 -169t-184.5 -65q-121 0 -187 79t-66 220q0 176 97.5 276.5t244.5 100.5q66 0 127 -29q10 -18 15 -53t2 -57q-26 14 -68.5 24t-73.5 10q-61 0 -113.5 -44t-70.5 -146zM214 273v-19q0 -84 25.5 -130.5 t75.5 -46.5q45 0 71.5 35.5t26.5 90.5q0 54 -24.5 82t-69.5 28q-60 0 -105 -40z" />
<glyph unicode="7" horiz-adv-x="584" d="M541 542l19 -92q-198 -300 -259 -543q-34 -7 -80 -7q-47 0 -84 8q44 141 106 259t154 244v12h-225q-12 -54 -30 -89q-22 0 -57 6.5t-53 14.5l16 187h493z" />
<glyph unicode="8" horiz-adv-x="629" d="M196 323v9q-107 47 -107 149q0 86 69.5 130.5t164.5 44.5q94 0 162 -39t68 -119q0 -60 -31.5 -96t-77.5 -48v-9q121 -48 121 -161q0 -98 -73 -151t-180 -53q-47 0 -88 8.5t-79 28t-60.5 58t-22.5 92.5q0 61 39 104t95 52zM282 286q-69 -37 -69 -107q0 -55 30 -80t76 -25 q40 0 69 22.5t29 70.5q0 20 -10 37t-32 32.5t-40.5 25t-52.5 24.5zM352 392q51 37 51 93q0 43 -26 63t-60 20q-33 0 -58.5 -17t-25.5 -56q0 -32 29.5 -54t89.5 -49z" />
<glyph unicode="9" horiz-adv-x="613" d="M403 183h-12q-44 -53 -126 -53q-102 0 -158.5 58.5t-56.5 149.5q0 100 68.5 162t175.5 62q131 0 197.5 -80t66.5 -232q0 -168 -94.5 -267.5t-237.5 -99.5q-85 0 -150 30q-12 19 -18 52t-4 56q75 -29 164 -29q61 0 114.5 45t70.5 146zM405 281q-2 94 -28.5 140t-82.5 46 q-43 0 -67 -33t-24 -89q0 -52 23.5 -83.5t65.5 -31.5q67 0 113 51z" />
<glyph unicode=":" horiz-adv-x="335" d="M179 507q40 0 64.5 -23.5t24.5 -64.5q0 -44 -24.5 -69t-64.5 -25q-91 0 -91 94q0 39 25.5 63.5t65.5 24.5zM179 175q41 0 66.5 -24t25.5 -67q0 -46 -25.5 -72t-66.5 -26q-95 0 -95 98q0 41 26.5 66t68.5 25z" />
<glyph unicode=";" horiz-adv-x="314" d="M163 507q40 0 64.5 -23.5t24.5 -64.5q0 -44 -24.5 -69t-64.5 -25q-91 0 -91 94q0 39 25.5 63.5t65.5 24.5zM104 14l-60 13q17 64 46 95q22 6 56 6q55 0 106 -17q-12 -73 -50 -169t-74 -154q-48 13 -74 37q38 107 50 189z" />
<glyph unicode="&#x3c;" d="M493 457l-261 -180v-12l247 -174q-8 -19 -32 -50t-42 -43l-323 234l5 79l308 226q23 -13 53 -37.5t45 -42.5z" />
<glyph unicode="=" d="M509 313h-454q0 51 16 107h433q7 -28 7 -75q0 -14 -2 -32zM509 117h-454q0 51 16 107h433q7 -28 7 -75q0 -14 -2 -32z" />
<glyph unicode="&#x3e;" d="M490 233l-322 -238q-19 11 -44 41.5t-33 50.5l247 173v12l-261 180q19 21 49 44.5t52 33.5l307 -220z" />
<glyph unicode="?" horiz-adv-x="530" d="M188 619v-88q-42 -25 -116 -29q-15 82 -15 186q44 15 109.5 26.5t115.5 11.5q96 0 153 -39.5t57 -108.5q0 -40 -20.5 -75t-49.5 -59.5t-58 -46t-49.5 -43.5t-20.5 -43q0 -46 23 -75q-51 -32 -113 -37q-21 20 -35.5 50.5t-14.5 55.5q0 33 18 63t44 53t52 45t44 48t18 52 t-19 46t-58 20q-33 0 -65 -13zM264 152q38 0 61.5 -22t23.5 -61q0 -42 -23.5 -65.5t-61.5 -23.5q-86 0 -86 89q0 37 24 60t62 23z" />
<glyph unicode="@" horiz-adv-x="1068" d="M755 439l-43 -286q0 -30 8 -43q58 14 99 56t58.5 92t17.5 103q0 86 -49 149t-121.5 91.5t-156.5 28.5q-168 0 -275.5 -116t-107.5 -288q0 -162 97.5 -264t260.5 -102q139 0 254 63q33 -28 50 -69q-141 -87 -326 -87q-205 0 -330.5 125.5t-125.5 324.5q0 218 145 362.5 t367 144.5q119 0 216.5 -41.5t157.5 -124t60 -191.5q0 -66 -23 -127t-69 -113.5t-124.5 -87t-179.5 -39.5q-17 27 -24 63h-9q-46 -63 -118 -63q-66 0 -108 48t-42 140q0 127 68 213q74 92 201 92q100 0 172 -54zM580 153l35 242q-15 5 -33 5q-56 0 -91 -53q-37 -55 -37 -144 q0 -94 52 -94q45 0 74 44z" />
<glyph unicode="A" horiz-adv-x="829" d="M797 0h-310q4 44 24 91q29 10 62 16q-19 23 -36 66l-11 28h-258l-12 -33q-16 -45 -30 -65q39 -4 69 -12q16 -39 16 -91h-282q6 44 24 90q18 9 48 15l261 616h115l250 -613q31 -6 54 -15q12 -42 16 -93zM406 575h-12q-4 -49 -39 -143l-51 -138h188l-53 140q-30 82 -33 141 z" />
<glyph unicode="B" horiz-adv-x="715" d="M534 380v-9q64 -16 101 -57.5t37 -103.5q0 -58 -25.5 -101t-69.5 -67.5t-96.5 -36.5t-113.5 -12q-151 0 -323 10q4 55 20 90q16 7 67 15v496q-39 4 -66 10q-7 53 -1 93q175 13 273 13q133 0 215.5 -47.5t82.5 -141.5q0 -52 -27.5 -93.5t-73.5 -57.5zM285 320v-227 q31 -4 70 -4q159 0 159 115q0 58 -44 87t-117 29h-68zM285 622v-208h65q65 0 97.5 25t32.5 82q0 52 -40.5 78.5t-113.5 26.5q-21 0 -41 -4z" />
<glyph unicode="C" horiz-adv-x="702" d="M494 517v98q-33 15 -72 15q-92 0 -148 -69t-56 -199q0 -131 56.5 -198t151.5 -67q100 0 204 38q2 -21 -5 -52t-19 -50q-102 -53 -215 -53q-151 0 -244 103t-93 265q0 174 108 277.5t269 103.5q111 0 205 -47q0 -106 -19 -194q-70 0 -123 29z" />
<glyph unicode="D" horiz-adv-x="779" d="M131 107v488q-35 3 -66 9q-8 57 -1 94q148 18 289 18q181 0 285.5 -87t104.5 -261q0 -94 -30 -168t-81 -118t-112 -66.5t-128 -22.5q-204 0 -348 9q4 55 20 90q16 7 67 15zM285 614v-519q33 -3 78 -3q104 0 163 63t59 197t-63.5 200t-174.5 66q-28 0 -62 -4z" />
<glyph unicode="E" horiz-adv-x="684" d="M617 0h-575q4 55 20 90q19 8 69 16v499q-40 4 -66 12q-7 52 -1 92h543v-181q-67 0 -113 15q-8 28 -12 72h-197v-207h155q2 21 9 44q47 15 109 15v-205q-65 -6 -110 8q-7 21 -9 46h-154v-220h200q3 44 13 81q47 15 119 15v-192z" />
<glyph unicode="F" horiz-adv-x="629" d="M285 298v-192q55 -4 100 -14q5 -16 6.5 -46.5t-1.5 -45.5h-348q4 55 20 90q19 8 69 16v499q-40 4 -66 12q-7 52 -1 92h522v-190q-64 0 -115 17q-10 36 -14 79h-172v-225h138q2 23 9 48q50 16 109 16v-216q-66 -6 -110 9q-7 23 -9 51h-137z" />
<glyph unicode="G" horiz-adv-x="795" d="M677 261v-231q-52 -18 -136.5 -34t-148.5 -16q-156 0 -246 98t-90 259q0 177 108.5 284.5t288.5 107.5q124 0 229 -62q0 -100 -20 -182q-27 0 -66.5 9t-55.5 18v102q-40 20 -93 20q-97 0 -161.5 -74.5t-64.5 -213.5q0 -132 58.5 -197.5t161.5 -65.5q34 0 88 6v171 q-76 0 -128 11q-11 44 -11 90h370q0 -51 -14 -90q-31 -8 -69 -10z" />
<glyph unicode="H" horiz-adv-x="861" d="M576 311h-291v-205q40 -3 73 -14q4 -16 5.5 -46t-1.5 -46h-320q4 55 20 90q19 8 69 16v499q-40 4 -66 12q-8 56 -1 92h289q3 -15 2.5 -45.5t-4.5 -46.5q-26 -9 -66 -11v-196h291v195q-36 4 -59 12q-10 55 -1 92h289q6 -45 -2 -92q-30 -9 -73 -11v-500q43 -3 80 -14 q6 -22 6 -62q0 -16 -2 -30h-319q5 56 18 90q17 7 63 16v205z" />
<glyph unicode="I" horiz-adv-x="416" d="M369 0h-327q4 55 20 90q19 8 69 16v499q-40 4 -66 12q-8 56 -1 92h296q3 -15 2.5 -45.5t-4.5 -46.5q-30 -9 -73 -11v-500q43 -3 80 -14q6 -21 6 -62q0 -16 -2 -30z" />
<glyph unicode="J" horiz-adv-x="415" d="M305 606v-364q0 -303 -265 -425q-34 34 -47 81q158 91 158 318v389q-50 4 -85 12q-7 52 -1 92h315q3 -12 3 -37q0 -35 -5 -55q-30 -9 -73 -11z" />
<glyph unicode="K" horiz-adv-x="782" d="M285 405h70l107 148q26 36 48 53q-28 4 -52 10q-10 36 -10 93h281q-2 -51 -18 -99q-22 -5 -63 -7l-182 -232l223 -269l64 4q0 -61 -24 -107q-65 -16 -144 -20l-252 334h-48v-207q38 -3 72 -14q4 -16 5.5 -46t-1.5 -46h-319q4 55 20 90q19 8 69 16v499q-40 4 -66 12 q-8 56 -1 92h288q3 -15 2.5 -45.5t-4.5 -46.5q-27 -9 -65 -11v-201z" />
<glyph unicode="L" horiz-adv-x="665" d="M131 106v499q-40 4 -66 12q-8 56 -1 92h325q3 -15 2 -46t-5 -46q-40 -9 -101 -11v-508h203q4 47 15 98q48 17 121 17v-213h-582q4 55 20 90q19 8 69 16z" />
<glyph unicode="M" horiz-adv-x="1022" d="M443 -11l-155 429q-29 77 -38 174h-12v-487q35 -4 65 -14q11 -49 3 -91h-256q4 54 17 90q21 9 58 16v499q-37 4 -61 12q-10 55 -1 92h275l138 -369q30 -78 36 -177h12q1 37 12.5 91t23.5 85l141 370h265q3 -15 2.5 -45.5t-4.5 -46.5q-30 -9 -73 -11v-504q40 -3 79 -12 q7 -18 7 -61q0 -15 -2 -29h-300q5 56 18 90q25 10 61 16v490h-12q-15 -107 -43 -186l-149 -421h-107z" />
<glyph unicode="N" horiz-adv-x="818" d="M322 709l219 -392q37 -67 51 -149h12v437q-45 4 -75 12q-10 55 -1 92h255q3 -12 3 -37q0 -35 -5 -55q-26 -9 -67 -11v-614h-155l-245 435q-39 71 -51 144h-12v-465q39 -3 75 -14q4 -16 5.5 -46t-1.5 -46h-280q4 56 18 90q22 9 63 16v499q-40 4 -66 12q-10 55 -1 92h258z " />
<glyph unicode="O" horiz-adv-x="787" d="M395 729q154 0 245 -96t91 -269q0 -180 -90.5 -282t-245.5 -102q-164 0 -251.5 98t-87.5 286q0 166 95.5 265.5t243.5 99.5zM220 364q0 -131 46.5 -208t128.5 -77q85 0 129 75t44 210q0 118 -48 192.5t-125 74.5q-84 0 -129.5 -71t-45.5 -196z" />
<glyph unicode="P" horiz-adv-x="680" d="M131 106v496q-33 0 -67 6q-8 45 -2 97q124 14 298 14q131 0 209.5 -55.5t78.5 -165.5q0 -76 -42.5 -130t-104 -77t-134.5 -23q-47 0 -82 7v-169q56 -3 103 -14q5 -16 6.5 -46.5t-1.5 -45.5h-351q4 55 20 90q19 8 69 16zM285 620v-250q35 -6 85 -6q56 0 89.5 32.5 t33.5 98.5q0 59 -41.5 93.5t-110.5 34.5q-33 0 -56 -3z" />
<glyph unicode="Q" horiz-adv-x="786" d="M629 75v-9q42 -37 90.5 -71.5t65.5 -36.5l90 10q1 -10 1 -25q0 -55 -24 -105q-10 -5 -36.5 -11t-37.5 -6q-39 0 -117 58t-140 122q-53 -21 -126 -21q-164 0 -251.5 98t-87.5 286q0 166 95.5 265.5t243.5 99.5q154 0 245 -96t91 -269q0 -97 -27.5 -172.5t-74.5 -116.5z M219 364q0 -132 46.5 -208.5t129.5 -76.5q85 0 129 75t44 210q0 118 -48 192.5t-125 74.5q-85 0 -130.5 -71t-45.5 -196z" />
<glyph unicode="R" horiz-adv-x="747" d="M131 106v495q-39 0 -67 7q-8 45 -2 97q123 14 294 14q132 0 210.5 -52.5t78.5 -158.5q0 -68 -40 -117.5t-104 -73.5q41 -75 87 -137t69 -76l55 6q0 -62 -21 -104q-56 -17 -133 -22q-28 20 -91 117.5t-106 191.5q-43 0 -76 7v-194q41 -4 74 -14q4 -16 5.5 -46t-1.5 -46 h-321q4 55 20 90q19 8 69 16zM285 620v-229q31 -6 83 -6q54 0 88 29.5t34 88.5q0 55 -42 87.5t-108 32.5q-32 0 -55 -3z" />
<glyph unicode="S" horiz-adv-x="626" d="M414 540v80q-33 16 -73 16q-49 0 -78 -21t-29 -53q0 -41 35 -70t85 -49.5t100 -45t85 -72t35 -115.5q0 -230 -288 -230q-129 0 -229 37q0 108 17 198q73 0 125 -18v-102q59 -21 108 -21q57 0 89 24.5t32 69.5q0 32 -19 55.5t-49 39t-67 30t-73.5 33.5t-66.5 44t-49 66.5 t-19 96.5q0 91 68.5 143.5t188.5 52.5q108 0 210 -35q0 -93 -21 -179q-63 0 -117 25z" />
<glyph unicode="T" horiz-adv-x="705" d="M430 615v-509q53 -3 99 -14q5 -16 6.5 -46.5t-1.5 -45.5h-365q3 43 24 89q33 11 83 17v509h-111q-4 -47 -13 -81q-42 -14 -116 -14v189h635v-192q-69 0 -117 14q-10 37 -14 84h-110z" />
<glyph unicode="U" horiz-adv-x="816" d="M285 606v-331q0 -98 36.5 -146t113.5 -48q82 0 120.5 52.5t38.5 141.5v330q-37 4 -61 12q-10 55 -1 92h246q3 -12 3 -37q0 -35 -5 -55q-25 -9 -62 -11v-324q0 -141 -74 -221.5t-231 -80.5q-143 0 -210.5 71t-67.5 216v341q-41 4 -66 11q-9 40 -9 90h299q3 -15 2.5 -45.5 t-4.5 -46.5q-29 -9 -68 -11z" />
<glyph unicode="V" horiz-adv-x="792" d="M413 151h12q6 57 34 138l72 208q25 70 51 110q-39 2 -71 10q-16 44 -16 92h276q0 -58 -15 -96q-23 -6 -54 -8l-238 -617h-127l-232 618q-27 3 -53 12q-13 35 -17 91h316q0 -41 -19 -96q-28 -8 -76 -8q32 -48 52 -105l72 -211q25 -74 33 -138z" />
<glyph unicode="W" horiz-adv-x="1106" d="M362 127h12q2 99 25 190l106 401h140l102 -402q20 -81 22 -181h12q2 93 28 182l55 184q20 65 45 105q-31 2 -59 10q-13 41 -13 93h246q0 -56 -14 -96q-24 -6 -51 -8l-200 -616h-130l-102 419q-16 67 -20 167h-12q-4 -100 -22 -168l-110 -419h-144l-184 618q-29 4 -50 12 q-12 37 -16 91h294q0 -47 -17 -96q-24 -8 -66 -8q26 -41 44 -104l50 -184q27 -98 29 -190z" />
<glyph unicode="X" horiz-adv-x="801" d="M445 442l60 113q13 26 40 53q-27 2 -47 10q-14 44 -14 91h256q0 -53 -18 -96q-27 -6 -52 -8l-163 -251l179 -248q27 -2 65 -12q15 -46 18 -94h-317q5 51 21 92q20 7 49 9q-25 17 -61 69l-83 115l-62 -108q-22 -38 -58 -74q29 -2 58 -10q12 -36 12 -93h-291q5 49 22 89 q22 8 60 13l189 280l-159 222q-35 6 -58 14q-15 39 -19 91h319q0 -47 -17 -96q-22 -6 -56 -8q22 -16 48 -51z" />
<glyph unicode="Y" horiz-adv-x="721" d="M374 353h12q6 52 33 102l58 106q15 25 38 45q-31 4 -50 12q-13 41 -13 91h253q0 -56 -14 -96q-23 -6 -52 -8l-206 -337v-162q53 -3 99 -14q5 -16 6.5 -46.5t-1.5 -45.5h-365q3 43 24 89q33 11 83 17v152l-196 348q-29 4 -50 12q-12 37 -16 91h309q0 -44 -16 -96 q-19 -6 -59 -8q22 -17 37 -47l53 -103q27 -52 33 -102z" />
<glyph unicode="Z" horiz-adv-x="685" d="M69 0v89l359 512v12h-200q-5 -53 -16 -93q-56 -13 -122 -13v202h529v-89l-357 -509v-12h229q6 58 16 97q44 18 121 18v-214h-559z" />
<glyph unicode="[" horiz-adv-x="370" d="M83 -212v996h214q6 -42 -5 -89q-31 -7 -66 -9v-801q44 -4 81 -14q4 -18 4 -41q0 -22 -4 -42h-224z" />
<glyph unicode="\" horiz-adv-x="475" d="M85 786l352 -925q-15 -9 -54.5 -22.5t-61.5 -17.5l-343 906q16 16 49 34.5t58 24.5z" />
<glyph unicode="]" horiz-adv-x="370" d="M274 784v-996h-231q2 46 13 86q27 7 75 11v802q-33 2 -64 8q-3 16 -3.5 45t3.5 44h207z" />
<glyph unicode="^" d="M43 379l185 306l95 10l207 -329q-18 -14 -50 -30t-55 -23l-101 165q-32 52 -40 98h-12q-11 -53 -37 -95l-110 -183q-22 14 -46.5 38.5t-35.5 42.5z" />
<glyph unicode="_" horiz-adv-x="500" d="M-3 -147h506q6 -28 6 -71q0 -13 -2 -31h-526q0 54 16 102z" />
<glyph unicode="`" horiz-adv-x="381" d="M231 556l-179 178q19 14 63 26t76 12l134 -188q-42 -26 -94 -28z" />
<glyph unicode="a" horiz-adv-x="541" d="M325 55h-9q-45 -72 -147 -72q-59 0 -101.5 39t-42.5 110q0 80 57.5 123t146.5 43q44 0 82 -16v37q0 74 -88 74q-34 0 -83.5 -13t-78.5 -29q-4 16 -4 35q0 55 20 93q69 26 180 26q98 0 146.5 -41t48.5 -134v-168q0 -48 14 -74q31 0 65 8q1 -7 1 -16q0 -33 -17 -67 q-51 -30 -142 -30q-34 17 -48 72zM314 119v94q-27 6 -55 6q-43 0 -66 -19t-23 -52q0 -32 17.5 -48.5t44.5 -16.5q50 0 82 36z" />
<glyph unicode="b" horiz-adv-x="588" d="M75 27v598h-70q2 53 24 92q43 20 113 20q51 0 78 -11v-153q0 -63 -11 -142h15q15 31 49 52.5t82 21.5q38 0 72 -13t64 -41t47.5 -78t17.5 -116q0 -123 -75.5 -198.5t-197.5 -75.5q-120 0 -208 44zM217 351v-264q25 -7 54 -7q67 0 100 43.5t33 119.5q0 75 -26.5 116.5 t-69.5 41.5q-27 0 -52 -14t-39 -36z" />
<glyph unicode="c" horiz-adv-x="505" d="M337 344v63q-17 6 -34 6q-53 0 -84.5 -40t-31.5 -119q0 -84 35.5 -126t95.5 -42q80 0 146 29q2 -20 -5.5 -47.5t-19.5 -45.5q-73 -39 -168 -39q-110 0 -174.5 70t-64.5 183q0 117 76.5 193t196.5 76q87 0 158 -37q3 -15 3 -44q0 -62 -19 -109q-23 0 -57 9t-53 20z" />
<glyph unicode="d" horiz-adv-x="607" d="M368 479v146h-70q2 53 24 92q43 20 113 20q51 0 78 -11v-553q0 -48 10 -81h70q1 -5 1 -17q0 -37 -17 -67q-63 -20 -169 -20q-19 34 -27 79h-9q-46 -84 -151 -84q-76 0 -132.5 57.5t-56.5 181.5q0 128 67 205.5t176 77.5q56 0 93 -26zM371 135v258q-26 14 -60 14 q-63 0 -95 -43.5t-32 -120.5q0 -74 27 -114t72 -40q52 0 88 46z" />
<glyph unicode="e" horiz-adv-x="524" d="M477 213h-294q6 -58 41.5 -89.5t94.5 -31.5q33 0 81.5 8t75.5 18q5 -49 -25 -97q-70 -38 -170 -38q-116 0 -182.5 70t-66.5 181q0 120 70.5 195.5t186.5 75.5q192 0 192 -236q0 -20 -4 -56zM178 305h162q5 44 -12 78.5t-58 34.5q-38 0 -63 -31.5t-29 -81.5z" />
<glyph unicode="f" horiz-adv-x="389" d="M244 488h133q12 -48 5 -99h-138v-290q60 -6 97 -21q4 -12 6 -37.5t0 -40.5h-322q4 45 16 73q21 16 58 28v288h-78q5 59 20 92q23 15 58 23v33q0 105 60.5 156.5t168.5 51.5q88 0 158 -26q4 -17 4 -46q0 -54 -16 -108q-68 4 -111 25v60q-18 8 -43 8q-36 0 -56 -28t-20 -80 v-62z" />
<glyph unicode="g" horiz-adv-x="577" d="M93 -12v9q-16 8 -29 29.5t-13 44.5q0 65 63 94v9q-68 44 -68 143q0 86 61.5 137t156.5 51q72 0 122 -25q42 25 104 25q29 0 58 -8q21 -48 21 -103h-102q14 -36 14 -77q0 -89 -58 -138.5t-159 -49.5q-35 0 -62 6q-7 -14 -7 -25q0 -22 28 -30.5t94 -8.5q113 0 175 -32.5 t62 -113.5q0 -92 -79.5 -138t-208.5 -46q-114 0 -183.5 37.5t-69.5 106.5q0 42 23.5 68.5t56.5 34.5zM176 -35q-27 -24 -27 -55q0 -39 39.5 -59.5t94.5 -20.5q56 0 95 20t39 55q0 50 -133 50q-57 0 -108 10zM191 317q0 -49 19.5 -79t53.5 -30q35 0 53 29t18 80q0 48 -19 78 t-52 30q-73 0 -73 -108z" />
<glyph unicode="h" horiz-adv-x="657" d="M237 327v-231q44 -7 65 -18q10 -39 4 -78h-288q4 45 16 73q16 12 58 28v524h-70q2 53 24 92q43 20 113 20q51 0 78 -11v-151q0 -78 -10 -168h15q39 98 158 98q35 0 61 -7t51 -25t38 -56t13 -95q0 -119 -8 -225q42 -6 71 -19q5 -22 5 -57q0 -14 -1 -21h-274q4 49 13 73 q11 11 47 28v194q0 99 -77 99q-62 0 -102 -67z" />
<glyph unicode="i" horiz-adv-x="343" d="M99 385h-72q2 53 24 92q43 20 114 20q52 0 79 -11v-390q47 -7 71 -18q5 -18 5 -56q0 -15 -1 -22h-294q4 45 16 73q18 14 58 28v284zM174 765q39 0 63 -23t24 -63q0 -43 -24 -67.5t-63 -24.5q-89 0 -89 92q0 39 25 62.5t64 23.5z" />
<glyph unicode="j" horiz-adv-x="293" d="M90 385h-72q2 53 24 92q43 20 114 20q52 0 79 -11v-383q0 -106 -43.5 -188.5t-117.5 -160.5q-21 7 -45.5 26.5t-37.5 38.5q99 117 99 262v304zM165 765q39 0 63 -23t24 -63q0 -43 -24 -67.5t-63 -24.5q-89 0 -89 92q0 39 25 62.5t64 23.5z" />
<glyph unicode="k" horiz-adv-x="621" d="M237 220v-124q43 -7 64 -18q10 -39 4 -78h-287q4 45 16 73q16 12 58 28v524h-70q2 53 24 92q43 20 113 20q51 0 78 -11v-419h50l41 44q24 26 52 39q-32 6 -52 17q-13 36 -13 81h272q0 -48 -18 -89q-22 -9 -63 -14l-104 -101q38 -62 80.5 -114t66.5 -72l58 9q1 -4 1 -14 q0 -19 -6.5 -48.5t-15.5 -45.5q-45 -17 -97 -21q-52 12 -204 242h-48z" />
<glyph unicode="l" horiz-adv-x="336" d="M92 625h-70q2 53 24 92q43 20 113 20q51 0 78 -11v-630q47 -7 71 -18q5 -18 5 -56q0 -15 -1 -22h-294q4 45 16 73q18 14 58 28v524z" />
<glyph unicode="m" horiz-adv-x="952" d="M244 341v-245q43 -7 64 -18q10 -39 4 -78h-287q4 45 16 73q16 12 58 28v284h-72q2 53 24 92q40 20 102 20q45 0 69 -11v-79h15q47 98 159 98q59 0 93 -21.5t47 -80.5h9q18 45 58 73.5t100 28.5q35 0 61 -7t50 -25t37 -56t13 -95q0 -119 -8 -225q42 -6 71 -19q5 -20 5 -55 q0 -15 -1 -23h-272q4 49 13 73q13 13 45 28v194q0 99 -75 99q-49 0 -91 -53v-245q43 -7 64 -18q10 -39 4 -78h-265q4 53 12 73q10 11 44 28v194q0 99 -75 99q-51 0 -91 -53z" />
<glyph unicode="n" horiz-adv-x="652" d="M244 340v-244q44 -7 65 -18q10 -39 4 -78h-288q4 45 16 73q16 12 58 28v284h-72q2 53 24 92q40 20 102 20q45 0 69 -11v-79h15q49 98 163 98q35 0 61.5 -7t51.5 -25t38 -56t13 -95q0 -115 -8 -225q42 -6 71 -19q5 -20 5 -55q0 -15 -1 -23h-274q4 49 13 73q11 11 47 28 v194q0 99 -78 99q-54 0 -95 -54z" />
<glyph unicode="o" horiz-adv-x="567" d="M284 505q115 0 183 -66.5t68 -186.5q0 -127 -67.5 -198t-183.5 -71q-122 0 -187 68.5t-65 200.5q0 116 71 184.5t181 68.5zM181 252q0 -80 27.5 -127.5t75.5 -47.5q101 0 101 175q0 70 -27.5 115t-73.5 45q-49 0 -76 -43.5t-27 -116.5z" />
<glyph unicode="p" horiz-adv-x="595" d="M227 9v-147q59 -6 95 -21q4 -12 6 -37.5t0 -40.5h-320q4 45 16 73q16 12 58 28v521h-72q2 53 24 92q40 20 102 20q45 0 69 -11v-79h15q47 98 151 98q78 0 135 -58.5t57 -180.5q0 -130 -66 -206.5t-177 -76.5q-56 0 -93 26zM224 347v-252q26 -14 60 -14q127 0 127 166 q0 153 -91 153q-32 0 -57.5 -16t-38.5 -37z" />
<glyph unicode="q" horiz-adv-x="583" d="M513 450v-592q47 -4 78 -17q5 -20 5 -55q0 -15 -1 -23h-314q3 42 19 73q25 17 68 28v60q0 65 11 133h-15q-16 -31 -50 -52.5t-81 -21.5q-84 0 -142.5 60t-58.5 181q0 132 75 206.5t206 74.5q108 0 200 -55zM371 139v262q-30 10 -57 10q-65 0 -97.5 -44.5t-32.5 -121.5 q0 -73 27 -114.5t69 -41.5q27 0 52 14t39 36z" />
<glyph unicode="r" horiz-adv-x="440" d="M222 392h15q9 44 44.5 78.5t84.5 34.5q31 0 51 -10q20 -28 20 -87q0 -28 -6 -47q-30 17 -76 17q-70 0 -111 -66v-213q62 -6 98 -21q4 -12 6 -37.5t0 -40.5h-323q4 45 16 73q16 12 58 28v284h-70q0 55 22 92q40 20 102 20q45 0 69 -11v-94z" />
<glyph unicode="s" horiz-adv-x="466" d="M295 366v45q-20 11 -44 11q-53 0 -53 -44q0 -23 17.5 -38.5t43.5 -24t56.5 -21t56.5 -28t43.5 -46.5t17.5 -75q0 -84 -57.5 -123t-149.5 -39q-109 0 -180 38q-5 25 -5 54q0 52 10 85q68 0 115 -16v-55q31 -17 67 -17q58 0 58 46q0 21 -17.5 35.5t-44 22.5t-57.5 21 t-57.5 29.5t-44 49.5t-17.5 79q0 68 52.5 109t144.5 41t168 -34q2 -20 2 -35q0 -54 -11 -92q-65 0 -114 22z" />
<glyph unicode="t" horiz-adv-x="402" d="M82 503l18 114q45 24 121 24v-153h139q12 -48 5 -99h-144v-221q0 -40 16 -56t48 -16q44 0 92 13q1 -5 1 -12q0 -44 -24 -82q-58 -32 -136 -32q-73 0 -108.5 39t-35.5 125q0 129 10 242h-75q0 54 18 92q24 14 55 22z" />
<glyph unicode="u" horiz-adv-x="623" d="M383 142v243h-70q2 49 24 92q43 20 114 20q51 0 78 -11v-320q0 -43 8 -74h72q1 -5 1 -17q0 -37 -17 -67q-57 -20 -172 -20q-21 38 -29 87h-9q-49 -92 -153 -92q-73 0 -115.5 39t-42.5 147q0 113 6 216h-74q2 53 24 92q43 20 114 20q51 0 78 -11v-292q0 -51 17.5 -75 t61.5 -24t84 47z" />
<glyph unicode="v" horiz-adv-x="565" d="M291 107h12q5 41 25 105l29 92q17 52 37 81q-29 8 -44 18q-12 32 -12 85h223q0 -48 -17 -93q-20 -8 -40 -10l-153 -387l-145 -13l-156 398q-20 7 -35 22q-9 28 -11 83h260q0 -46 -16 -89q-24 -11 -54 -15q23 -29 37 -74l33 -97q19 -56 27 -106z" />
<glyph unicode="w" horiz-adv-x="834" d="M252 107h12q5 56 18 113l62 267l160 15l62 -279q14 -65 17 -117h11q4 41 24 116l24 86q13 51 28 78q-29 8 -43 18q-12 32 -12 84h215q0 -45 -17 -92q-21 -8 -40 -10l-118 -386l-161 -15l-61 255q-15 64 -17 127h-12q-2 -55 -19 -127l-61 -240l-162 -15l-112 398 q-20 7 -35 22q-9 28 -11 83h244q0 -46 -16 -89q-22 -11 -53 -15q20 -35 29 -71l24 -92q17 -62 20 -114z" />
<glyph unicode="x" horiz-adv-x="601" d="M276 192l-35 -51q-13 -21 -38 -41q22 -3 41 -12q14 -40 14 -88h-253q4 49 20 85q28 13 54 18l135 158l-113 125q-30 6 -47 15q-14 34 -16 87h277q0 -46 -11 -90q-14 -9 -35 -13q12 -6 32 -26l47 -52l36 50q9 15 26 30q-15 5 -29 15q-7 35 -7 86h205q-4 -50 -21 -92 q-18 -7 -37 -9l-115 -143l132 -145q23 -2 40 -10q16 -37 16 -89h-271q4 55 14 89q12 7 30 11q-20 11 -42 38z" />
<glyph unicode="y" horiz-adv-x="564" d="M300 109h12q5 45 20 93l31 109q11 41 29 74q-29 9 -42 18q-12 32 -12 85h215q0 -48 -17 -93q-18 -8 -39 -10l-58 -155q-76 -202 -119 -283q-35 -67 -95 -121.5t-124 -73.5q-18 18 -35 50t-20 56q57 15 105.5 49.5t74.5 76.5l-170 399q-23 7 -40 22q-10 31 -12 83h263 q0 -46 -16 -89q-18 -9 -56 -16q25 -33 39 -68l43 -113q18 -48 23 -93z" />
<glyph unicode="z" horiz-adv-x="501" d="M47 0l-15 68l246 320v12h-106q-8 -40 -22 -74q-67 0 -105 19v143h401l18 -68l-247 -323v-12q85 0 133 9q7 42 21 71q31 9 76 9q23 0 39 -3l-20 -171h-419z" />
<glyph unicode="{" horiz-adv-x="376" d="M33 254q0 48 15 89q40 4 52 26.5t12 71.5v176q0 83 48 130.5t168 52.5q0 -58 -19 -94q-56 -9 -56 -84v-173q0 -114 -68 -145v-9q68 -29 68 -138v-198q0 -87 68 -91q4 -15 2 -48t-8 -46q-114 6 -158.5 48t-44.5 123v199q0 57 -15 81.5t-64 28.5z" />
<glyph unicode="|" horiz-adv-x="348" d="M235 773v-962q-18 -6 -58 -6q-39 0 -62 6v951q46 11 120 11z" />
<glyph unicode="}" horiz-adv-x="376" d="M193 294v9q-64 38 -64 138v172q0 48 -17.5 69.5t-58.5 25.5q0 17 9 46t19 45q190 -14 190 -177v-178q0 -50 13 -74.5t57 -27.5q11 -38 11 -90q-46 -3 -63.5 -24.5t-17.5 -72.5v-203q0 -84 -43.5 -129t-159.5 -51q-13 40 -6 94q30 2 48.5 23t18.5 56v201q0 58 14 93.5 t50 54.5z" />
<glyph unicode="~" d="M101 190q-14 10 -30 32t-23 40q22 39 61.5 62.5t86.5 23.5q40 0 96.5 -26t88.5 -26q24 0 43 12t29 29q45 -9 79 -34q-22 -50 -67.5 -83.5t-98.5 -33.5q-48 0 -100 26t-84 26q-51 0 -81 -48z" />
<glyph unicode="&#xa2;" horiz-adv-x="559" d="M373 362v63q-17 6 -36 6q-56 0 -89 -37t-33 -110q0 -75 34.5 -115.5t100.5 -40.5q80 0 150 30q2 -20 -5.5 -48.5t-19.5 -46.5q-42 -22 -97 -32v-89q-16 -5 -62 -5t-66 5v87q-89 16 -139.5 79.5t-50.5 158.5q0 93 55 160.5t148 87.5v77q49 11 128 11v-85q60 -10 110 -40 q1 -8 1 -27q0 -73 -19 -118q-69 0 -110 29z" />
<glyph unicode="&#xa3;" horiz-adv-x="598" d="M455 236h-170q1 -7 1 -19q0 -36 -17 -66.5t-40 -46.5v-9h185q7 36 18 57q54 12 107 9v-161h-500q4 46 17 79q21 16 57 29q34 60 34 97q0 21 -1 31h-83q0 35 13 83h56q-9 47 -9 82q0 75 58.5 118t165.5 43q87 0 174 -34q3 -16 3 -35q0 -61 -17 -110q-57 3 -110 31v47 q-21 9 -46 9q-40 0 -62.5 -18.5t-22.5 -49.5q0 -33 8 -83h178q10 -40 3 -83z" />
<glyph unicode="&#xa5;" horiz-adv-x="609" d="M530 125h-149v-26q56 -7 91 -21q12 -39 4 -78h-335q3 40 20 73q22 12 71 27v25h-150q0 36 12 76h138v4l-34 49h-116q0 36 12 76h51l-70 102q-26 7 -43 17q-12 36 -12 93h283q0 -45 -14 -97q-16 -9 -47 -16q20 -17 31 -38l19 -37q20 -36 27 -66h12q8 36 27 66l24 38 q18 27 32 38q-24 9 -35 18q-11 36 -11 94h232q0 -50 -21 -100q-17 -8 -50 -12l-69 -100h67q9 -33 3 -76h-123l-26 -38v-15h146q9 -33 3 -76z" />
<glyph unicode="&#xa8;" horiz-adv-x="507" d="M121 727q36 0 57.5 -20t21.5 -56q0 -39 -21.5 -60.5t-57.5 -21.5q-81 0 -81 82q0 35 22.5 55.5t58.5 20.5zM388 727q36 0 57.5 -20t21.5 -56q0 -39 -21.5 -60.5t-57.5 -21.5q-81 0 -81 82q0 35 22.5 55.5t58.5 20.5z" />
<glyph unicode="&#xa9;" horiz-adv-x="862" d="M472 407v49q-12 4 -27 4q-32 0 -53 -31.5t-21 -89.5q0 -115 97 -115q53 0 113 19q1 -15 -4 -40t-13 -40q-66 -32 -137 -32q-89 0 -144 56t-55 144q0 97 64 155.5t155 58.5q75 0 138 -29q0 -63 -11 -131q-61 0 -102 22zM795 343q0 -151 -107.5 -257t-261.5 -106 q-153 0 -256 103.5t-103 255.5t107 258.5t260 106.5q152 0 256.5 -105t104.5 -256zM706 340q0 116 -80.5 200t-194.5 84t-194.5 -82.5t-80.5 -199.5t81 -200t196 -83q114 0 193.5 82t79.5 199z" />
<glyph unicode="&#xab;" horiz-adv-x="689" d="M241 258q29 -89 85 -199q-58 -27 -124 -29q-82 128 -124 228q38 91 107 202q80 22 151 22q-59 -121 -95 -224zM505 261q29 -89 85 -199q-58 -27 -122 -29q-82 128 -124 228q38 91 107 202q78 22 149 22q-59 -121 -95 -224z" />
<glyph unicode="&#xad;" horiz-adv-x="406" d="M340 218h-287q0 60 18 116h263q8 -32 8 -82q0 -14 -2 -34z" />
<glyph unicode="&#xae;" horiz-adv-x="714" d="M260 481v137q-11 0 -26 3q-7 29 -1 49q49 5 127 5q52 0 84.5 -18.5t32.5 -54.5q0 -49 -44 -71q16 -30 31 -50l32 3q2 -24 -10 -49q-39 -11 -76 -11q-34 55 -53 99h-18v-41q16 -2 26 -9q5 -24 3 -43h-145q3 23 11 42q15 8 26 9zM339 620v-47h26q32 0 32 24q0 23 -38 23 h-20zM616 551q0 -113 -74 -186.5t-188 -73.5t-185 71.5t-71 185.5q0 113 73.5 185t188.5 72t185.5 -71t70.5 -183zM547 546q0 86 -53.5 142.5t-138.5 56.5q-83 0 -136.5 -56t-53.5 -139q0 -85 54 -142.5t139 -57.5q83 0 136 55.5t53 140.5z" />
<glyph unicode="&#xb4;" horiz-adv-x="368" d="M320 729l-192 -185q-17 7 -37 23.5t-30 30.5l126 176q26 0 70.5 -14t62.5 -31z" />
<glyph unicode="&#xb8;" horiz-adv-x="299" d="M67 -84l39 92q34 9 89 9l-13 -70q27 -7 47 -27.5t20 -49.5q0 -46 -41 -75.5t-98 -35.5q-34 19 -55 59q28 4 47 17.5t19 33.5q0 36 -54 47z" />
<glyph unicode="&#xbb;" horiz-adv-x="689" d="M99 64q60 127 83 194q-36 99 -84 198q56 27 123 27q81 -127 123 -225q-41 -92 -124 -228q-63 3 -121 34zM364 67q60 127 83 194q-36 99 -84 198q54 27 121 27q81 -127 123 -225q-41 -92 -124 -228q-63 3 -119 34z" />
<glyph unicode="&#xc4;" horiz-adv-x="829" d="M797 0h-310q4 44 24 91q29 10 62 16q-19 23 -36 66l-11 28h-258l-12 -33q-16 -45 -30 -65q39 -4 69 -12q16 -39 16 -91h-282q6 44 24 90q18 9 48 15l261 616h115l250 -613q31 -6 54 -15q12 -42 16 -93zM406 575h-12q-4 -49 -39 -143l-51 -138h188l-53 140q-30 82 -33 141 zM250 923q38 0 60.5 -20t22.5 -58q0 -40 -22.5 -61.5t-60.5 -21.5q-85 0 -85 83q0 36 23.5 57t61.5 21zM579 923q38 0 60.5 -20t22.5 -58q0 -40 -22.5 -61.5t-60.5 -21.5q-85 0 -85 83q0 36 23.5 57t61.5 21z" />
<glyph unicode="&#xd6;" horiz-adv-x="787" d="M220 923q38 0 60.5 -20t22.5 -58q0 -40 -22.5 -61.5t-60.5 -21.5q-85 0 -85 83q0 36 23.5 57t61.5 21zM577 923q38 0 60.5 -20t22.5 -58q0 -40 -22.5 -61.5t-60.5 -21.5q-85 0 -85 83q0 36 23.5 57t61.5 21zM395 729q154 0 245 -96t91 -269q0 -180 -90.5 -282 t-245.5 -102q-164 0 -251.5 98t-87.5 286q0 166 95.5 265.5t243.5 99.5zM220 364q0 -131 46.5 -208t128.5 -77q85 0 129 75t44 210q0 118 -48 192.5t-125 74.5q-84 0 -129.5 -71t-45.5 -196z" />
<glyph unicode="&#xdc;" horiz-adv-x="816" d="M285 606v-331q0 -98 36.5 -146t113.5 -48q82 0 120.5 52.5t38.5 141.5v330q-37 4 -61 12q-10 55 -1 92h246q3 -12 3 -37q0 -35 -5 -55q-25 -9 -62 -11v-324q0 -141 -74 -221.5t-231 -80.5q-143 0 -210.5 71t-67.5 216v341q-41 4 -66 11q-9 40 -9 90h299q3 -15 2.5 -45.5 t-4.5 -46.5q-29 -9 -68 -11zM269 923q38 0 60.5 -20t22.5 -58q0 -40 -22.5 -61.5t-60.5 -21.5q-85 0 -85 83q0 36 23.5 57t61.5 21zM598 923q38 0 60.5 -20t22.5 -58q0 -40 -22.5 -61.5t-60.5 -21.5q-85 0 -85 83q0 36 23.5 57t61.5 21z" />
<glyph unicode="&#xdf;" horiz-adv-x="726" d="M241 0h-216q4 45 16 73q16 12 58 28v281q-39 4 -65 16q-9 44 -3 90h69q10 129 86 195t208 66q39 0 76 -7.5t70.5 -23t54 -43.5t20.5 -65q0 -62 -53 -107q-19 -15 -28 -24t-17.5 -25t-8.5 -34q0 -15 5 -27t17 -22t22 -16.5t30 -17t30 -16.5q47 -29 73.5 -64t26.5 -93 q0 -87 -63.5 -134t-156.5 -47q-94 0 -177 40q-3 19 -3 42q0 57 13 98q67 0 113 -17v-58q28 -14 60 -14q66 0 66 63q0 24 -14 44t-29.5 31t-45.5 27q-30 17 -45 27t-36.5 29.5t-31.5 45.5t-10 59q0 28 14 55t26.5 39.5t36.5 33.5q40 35 40 65q0 31 -24.5 47t-56.5 16 q-81 0 -114 -53.5t-33 -161.5v-441z" />
<glyph unicode="&#xe4;" horiz-adv-x="541" d="M325 55h-9q-45 -72 -147 -72q-59 0 -101.5 39t-42.5 110q0 80 57.5 123t146.5 43q44 0 82 -16v37q0 74 -88 74q-34 0 -83.5 -13t-78.5 -29q-4 16 -4 35q0 55 20 93q69 26 180 26q98 0 146.5 -41t48.5 -134v-168q0 -48 14 -74q31 0 65 8q1 -7 1 -16q0 -33 -17 -67 q-51 -30 -142 -30q-34 17 -48 72zM314 119v94q-27 6 -55 6q-43 0 -66 -19t-23 -52q0 -32 17.5 -48.5t44.5 -16.5q50 0 82 36zM117 727q36 0 57.5 -20t21.5 -56q0 -39 -21.5 -60.5t-57.5 -21.5q-81 0 -81 82q0 35 22.5 55.5t58.5 20.5zM384 727q36 0 57.5 -20t21.5 -56 q0 -39 -21.5 -60.5t-57.5 -21.5q-81 0 -81 82q0 35 22.5 55.5t58.5 20.5z" />
<glyph unicode="&#xf6;" horiz-adv-x="567" d="M154 727q36 0 57.5 -20t21.5 -56q0 -39 -21.5 -60.5t-57.5 -21.5q-81 0 -81 82q0 35 22.5 55.5t58.5 20.5zM433 727q36 0 57.5 -20t21.5 -56q0 -39 -21.5 -60.5t-57.5 -21.5q-81 0 -81 82q0 35 22.5 55.5t58.5 20.5zM284 505q115 0 183 -66.5t68 -186.5 q0 -127 -67.5 -198t-183.5 -71q-122 0 -187 68.5t-65 200.5q0 116 71 184.5t181 68.5zM181 252q0 -80 27.5 -127.5t75.5 -47.5q101 0 101 175q0 70 -27.5 115t-73.5 45q-49 0 -76 -43.5t-27 -116.5z" />
<glyph unicode="&#xfc;" horiz-adv-x="623" d="M383 142v243h-70q2 49 24 92q43 20 114 20q51 0 78 -11v-320q0 -43 8 -74h72q1 -5 1 -17q0 -37 -17 -67q-57 -20 -172 -20q-21 38 -29 87h-9q-49 -92 -153 -92q-73 0 -115.5 39t-42.5 147q0 113 6 216h-74q2 53 24 92q43 20 114 20q51 0 78 -11v-292q0 -51 17.5 -75 t61.5 -24t84 47zM154 727q36 0 57.5 -20t21.5 -56q0 -39 -21.5 -60.5t-57.5 -21.5q-81 0 -81 82q0 35 22.5 55.5t58.5 20.5zM421 727q36 0 57.5 -20t21.5 -56q0 -39 -21.5 -60.5t-57.5 -21.5q-81 0 -81 82q0 35 22.5 55.5t58.5 20.5z" />
<glyph unicode="&#x10c;" horiz-adv-x="702" d="M477 794l-106 -5l-148 163q12 14 42.5 26t51.5 14l125 -96l121 100q42 -11 75 -40zM494 517v98q-33 15 -72 15q-92 0 -148 -69t-56 -199q0 -131 56.5 -198t151.5 -67q100 0 204 38q2 -21 -5 -52t-19 -50q-102 -53 -215 -53q-151 0 -244 103t-93 265q0 174 108 277.5 t269 103.5q111 0 205 -47q0 -106 -19 -194q-70 0 -123 29z" />
<glyph unicode="&#x10d;" horiz-adv-x="505" d="M351 570l-106 -5l-148 163q12 14 42.5 26t51.5 14l125 -96l121 100q42 -11 75 -40zM337 344v63q-17 6 -34 6q-53 0 -84.5 -40t-31.5 -119q0 -84 35.5 -126t95.5 -42q80 0 146 29q2 -20 -5.5 -47.5t-19.5 -45.5q-73 -39 -168 -39q-110 0 -174.5 70t-64.5 183 q0 117 76.5 193t196.5 76q87 0 158 -37q3 -15 3 -44q0 -62 -19 -109q-23 0 -57 9t-53 20z" />
<glyph unicode="&#x160;" horiz-adv-x="626" d="M414 540v80q-33 16 -73 16q-49 0 -78 -21t-29 -53q0 -41 35 -70t85 -49.5t100 -45t85 -72t35 -115.5q0 -230 -288 -230q-129 0 -229 37q0 108 17 198q73 0 125 -18v-102q59 -21 108 -21q57 0 89 24.5t32 69.5q0 32 -19 55.5t-49 39t-67 30t-73.5 33.5t-66.5 44t-49 66.5 t-19 96.5q0 91 68.5 143.5t188.5 52.5q108 0 210 -35q0 -93 -21 -179q-63 0 -117 25zM396 761h-137l-161 123q12 15 43.5 30t57.5 20l143 -76l137 71q19 -6 41.5 -21.5t34.5 -30.5z" />
<glyph unicode="&#x161;" horiz-adv-x="466" d="M295 366v45q-20 11 -44 11q-53 0 -53 -44q0 -23 17.5 -38.5t43.5 -24t56.5 -21t56.5 -28t43.5 -46.5t17.5 -75q0 -84 -57.5 -123t-149.5 -39q-109 0 -180 38q-5 25 -5 54q0 52 10 85q68 0 115 -16v-55q31 -17 67 -17q58 0 58 46q0 21 -17.5 35.5t-44 22.5t-57.5 21 t-57.5 29.5t-44 49.5t-17.5 79q0 68 52.5 109t144.5 41t168 -34q2 -20 2 -35q0 -54 -11 -92q-65 0 -114 22zM298 558l-106 -5l-148 163q12 14 42.5 26t51.5 14l125 -96l121 100q42 -11 75 -40z" />
<glyph unicode="&#x17d;" horiz-adv-x="685" d="M69 0v89l359 512v12h-200q-5 -53 -16 -93q-56 -13 -122 -13v202h529v-89l-357 -509v-12h229q6 58 16 97q44 18 121 18v-214h-559zM422 761h-137l-161 123q12 15 43.5 30t57.5 20l143 -76l137 71q19 -6 41.5 -21.5t34.5 -30.5z" />
<glyph unicode="&#x17e;" horiz-adv-x="501" d="M47 0l-15 68l246 320v12h-106q-8 -40 -22 -74q-67 0 -105 19v143h401l18 -68l-247 -323v-12q85 0 133 9q7 42 21 71q31 9 76 9q23 0 39 -3l-20 -171h-419zM321 558l-106 -5l-148 163q12 14 42.5 26t51.5 14l125 -96l121 100q42 -11 75 -40z" />
<glyph unicode="&#x2c6;" horiz-adv-x="473" d="M171 757l104 5l137 -148q-9 -16 -31 -34.5t-40 -24.5l-122 103l-129 -106q-34 29 -48 75z" />
<glyph unicode="&#x2c7;" horiz-adv-x="507" d="M299 558l-106 -5l-148 163q12 14 42.5 26t51.5 14l125 -96l121 100q42 -11 75 -40z" />
<glyph unicode="&#x2da;" horiz-adv-x="364" d="M185 790q57 0 90.5 -29t33.5 -82q0 -59 -33.5 -89.5t-90.5 -30.5q-130 0 -130 120q0 50 35.5 80.5t94.5 30.5zM186 727q-52 0 -52 -49q0 -29 12.5 -42t39.5 -13q45 0 45 55q0 49 -45 49z" />
<glyph unicode="&#x2dc;" horiz-adv-x="490" d="M370 724q48 0 80 -17q0 -54 -35 -94.5t-101 -40.5q-35 0 -79.5 22.5t-72.5 22.5q-33 0 -42 -36q-46 0 -79 39q7 48 39.5 79t91.5 31q39 0 82.5 -21.5t68.5 -21.5q34 0 47 37z" />
<glyph unicode="&#x2000;" horiz-adv-x="498" />
<glyph unicode="&#x2001;" horiz-adv-x="996" />
<glyph unicode="&#x2002;" horiz-adv-x="498" />
<glyph unicode="&#x2003;" horiz-adv-x="996" />
<glyph unicode="&#x2004;" horiz-adv-x="332" />
<glyph unicode="&#x2005;" horiz-adv-x="249" />
<glyph unicode="&#x2006;" horiz-adv-x="166" />
<glyph unicode="&#x2007;" horiz-adv-x="166" />
<glyph unicode="&#x2008;" horiz-adv-x="124" />
<glyph unicode="&#x2009;" horiz-adv-x="199" />
<glyph unicode="&#x200a;" horiz-adv-x="55" />
<glyph unicode="&#x2010;" horiz-adv-x="406" d="M340 218h-287q0 60 18 116h263q8 -32 8 -82q0 -14 -2 -34z" />
<glyph unicode="&#x2011;" horiz-adv-x="406" d="M340 218h-287q0 60 18 116h263q8 -32 8 -82q0 -14 -2 -34z" />
<glyph unicode="&#x2012;" horiz-adv-x="406" d="M340 218h-287q0 60 18 116h263q8 -32 8 -82q0 -14 -2 -34z" />
<glyph unicode="&#x2013;" horiz-adv-x="500" d="M466 223h-435q0 55 17 110h413q7 -31 7 -77q0 -15 -2 -33z" />
<glyph unicode="&#x2014;" horiz-adv-x="1000" d="M945 223h-893q0 55 17 110h871q7 -28 7 -77q0 -15 -2 -33z" />
<glyph unicode="&#x2018;" horiz-adv-x="313" d="M246 731q-60 -146 -75 -227l60 -14q-5 -19 -20.5 -48t-30.5 -44q-31 3 -74.5 15.5t-64.5 25.5q34 144 116 277q35 15 89 15z" />
<glyph unicode="&#x2019;" horiz-adv-x="313" d="M140 621l-58 13q17 64 46 95q22 6 53 6q52 0 101 -17q-12 -73 -50 -169t-74 -154q-43 12 -68 37q38 107 50 189z" />
<glyph unicode="&#x201a;" horiz-adv-x="313" d="M119 14l-58 13q17 64 46 95q23 6 54 6q53 0 102 -17q-12 -73 -51 -171t-75 -156q-46 13 -70 37q40 114 52 193z" />
<glyph unicode="&#x201c;" horiz-adv-x="545" d="M240 731q-60 -146 -75 -227l60 -14q-5 -19 -20.5 -48t-30.5 -44q-31 3 -73 15.5t-63 25.5q34 144 116 277q34 15 86 15zM476 731q-60 -146 -75 -227l60 -14q-5 -19 -20.5 -48t-30.5 -44q-31 3 -73 15.5t-63 25.5q34 144 116 277q34 15 86 15z" />
<glyph unicode="&#x201d;" horiz-adv-x="545" d="M136 621l-58 13q17 64 46 95q22 6 52 6q51 0 100 -17q-12 -73 -50 -169t-74 -154q-40 11 -66 37q38 107 50 189zM364 621l-58 13q17 64 46 95q22 6 52 6q51 0 100 -17q-12 -73 -50 -169t-74 -154q-40 11 -66 37q38 107 50 189z" />
<glyph unicode="&#x201e;" horiz-adv-x="545" d="M125 14l-58 13q17 64 46 95q23 6 52 6q51 0 100 -17q-12 -73 -51 -171t-75 -156q-40 11 -66 37q40 114 52 193zM361 14l-58 13q17 64 46 95q23 6 52 6q51 0 100 -17q-12 -73 -51 -171t-75 -156q-40 11 -66 37q40 114 52 193z" />
<glyph unicode="&#x2026;" horiz-adv-x="984" d="M821 176q41 0 66.5 -24t25.5 -67q0 -46 -25.5 -72t-66.5 -26q-95 0 -95 98q0 41 26.5 66t68.5 25zM165 176q41 0 66.5 -24t25.5 -67q0 -46 -25.5 -72t-66.5 -26q-95 0 -95 98q0 41 26.5 66t68.5 25zM493 176q41 0 66.5 -24t25.5 -67q0 -46 -25.5 -72t-66.5 -26 q-95 0 -95 98q0 41 26.5 66t68.5 25z" />
<glyph unicode="&#x202f;" horiz-adv-x="199" />
<glyph unicode="&#x2039;" horiz-adv-x="430" d="M241 258q29 -89 85 -199q-58 -27 -124 -29q-82 128 -124 228q38 91 107 202q80 22 151 22q-59 -121 -95 -224z" />
<glyph unicode="&#x203a;" horiz-adv-x="430" d="M99 64q60 127 83 194q-36 99 -84 198q56 27 123 27q81 -127 123 -225q-41 -92 -124 -228q-63 3 -121 34z" />
<glyph unicode="&#x205f;" horiz-adv-x="249" />
<glyph unicode="&#x20ac;" horiz-adv-x="618" d="M457 280h-433q0 36 12 76h59q27 96 108 151t198 55q100 0 186 -46q3 -15 3 -38q0 -46 -15 -93q-30 0 -69.5 9t-63.5 22v42q-21 8 -54 8q-48 0 -84 -27.5t-51 -82.5h201q9 -33 3 -76zM38 234h418q9 -33 3 -76h-191q39 -73 140 -73q85 0 167 31q2 -19 -5 -48t-17 -46 q-91 -42 -182 -42q-97 0 -168.5 48t-101.5 130h-75q0 36 12 76z" />
<glyph unicode="&#x2122;" horiz-adv-x="1085" d="M299 649v-179q37 -2 55 -8q3 -9 3.5 -29t-1.5 -31h-212q2 33 14 59q20 6 46 9v179h-61q-5 -38 -9 -54q-29 -11 -75 -11v125h387v-124q-42 0 -74 6q-7 20 -11 58h-62zM646 402h-152q0 32 10 60q10 3 36 8v170q-36 6 -42 8q-5 32 -1 61h184l56 -178q11 -35 16 -70h9 q7 39 17 70l58 178h172q4 -26 -1 -62q-24 -6 -41 -6v-170q33 -2 49 -8q4 -16 4 -34q0 -17 -3 -27h-174q0 35 9 60q16 5 32 7v180h-9q-4 -33 -28 -98l-54 -154h-102l-52 162q-19 58 -23 90h-9v-180q25 -2 38 -8q9 -28 1 -59z" />
<glyph unicode="&#xe000;" horiz-adv-x="490" d="M0 490h490v-490h-490v490z" />
</font>
</defs>
</svg>
